Browse Collections Artists Sources   Search Dates

Add Show    List Management    Help


Garcia 08/14/94
Warfield Theater, San Francisco, CA
Comments Add Comment    Source Collectors    Add to Collection    Add to Want List    History
Source # 136390 Other Sources
Entered by Joe Jupille
Checksums all , ffp
Disc Counts 0 / 0
Media Size
Date Circulated
Date Added

07/10/2016
Source Summary JGB; flac1644; remaster of shnid-4306; SBD -> Dat -> Cassette Master -> CD -> SHN. Transfer Info: SHN -> Samplitude Professional v11.2.1 -> FLAC (2 Discs Audio / 1 Disc FLAC). 
Source Information - Download Text | Download Zip
Jerry Garcia Band - August 14, 1994
Warfield Theatre - San Francisco, CA

Recording Info:
SBD -> Dat -> Cassette Master -> CD -> SHN

Transfer Info:
SHN -> Samplitude Professional v11.2.1 -> FLAC
(2 Discs Audio / 1 Disc FLAC)

Remastered By Charlie Miller
[email protected]
June 29, 2016

Notes:
-- This is a remaster of shnid=4306

Set 1:
01 - How Sweet It Is (To Be Loved By You)
02 - Waiting For A Miracle
03 - You Never Can Tell
04 - Mississippi Moon
05 - Lay Down Sally
06 - My Sisters And Brothers
07 - Everybody Needs Somebody To Love

Set 2:
08 - Shining Star
09 - Strugglin' Man
10 - And It Stoned Me
11 - Tore Up Over You
12 - The Maker
13 - Gomorrah
14 - Tangled Up In Blue


SHNTOOL OUTPUT:
    length     expanded size    cdr  WAVE problems  fmt   ratio  filename
     9:03.61       95928716 B   ---   --   ---xx   flac  0.6155  01 How Sweet It Is.flac
     8:03.41       85297676 B   ---   --   ---xx   flac  0.6230  02 Waiting For A Miracle.flac
    12:44.66      134924876 B   ---   --   ---xx   flac  0.6441  03 You Never Can Tell.flac
    12:08.63      128567420 B   ---   --   ---xx   flac  0.6105  04 Mississippi Moon.flac
    12:40.39      134155772 B   ---   --   ---xx   flac  0.6494  05 Lay Down Sally.flac
     3:48.51       40339196 B   ---   --   ---xx   flac  0.6549  06 My Sisters And Brothers.flac
     9:52.50      104546444 B   ---   --   ---xx   flac  0.6891  07 Everybody Needs Somebody To Love.flac
    21:29.54      227506652 B   ---   --   ---xx   flac  0.6268  08 Shining Star.flac
     8:45.20       92657084 B   ---   --   ---xx   flac  0.6615  09 Strugglin' Man.flac
     9:07.70       96655484 B   ---   --   ---xx   flac  0.6141  10 And It Stoned Me.flac
     9:35.68      101589980 B   ---   --   ---xx   flac  0.6647  11 Tore Up Over You.flac
    12:40.03      134071100 B   ---   --   ---xx   flac  0.6280  12 The Maker.flac
     4:35.51       48629996 B   ---   --   ---xx   flac  0.6278  13 Gomorrah.flac
    14:19.73      151699340 B   ---   --   ---xx   flac  0.6485  14 Tangled Up In Blue.flac
   148:57.35     1576569736 B                            0.6388  (14 files)


Show Checksums
all
b0653bb277337a0398c883facc8ef7a0 *01 How Sweet It Is.flac
f10d9ad896512ed6d07540a45f5651d8 *02 Waiting For A Miracle.flac
01776fbe15fee469e8c448a379c5ce11 *03 You Never Can Tell.flac
8ea217c8cc9d0fdddfa0e5328705bc1d *04 Mississippi Moon.flac
a183d3acdf3c65a930d555d345e7a9bd *05 Lay Down Sally.flac
a0663498a0c53a90940f4cd59f0b7892 *06 My Sisters And Brothers.flac
6ae50d679312cc7ffe8d8f78fe2a43f0 *07 Everybody Needs Somebody To Love.flac
ba2b0968ac38496a72a995b8a387755d *08 Shining Star.flac
1bd769030e9a35a07cd2b362eac7f7df *09 Strugglin' Man.flac
f3e000e8506da06ae6c8fd27853cef1c *10 And It Stoned Me.flac
48c746fff6a67c402775499a668892c7 *11 Tore Up Over You.flac
78529ab3daa381b007bdc34a632a2c9e *12 The Maker.flac
d6113dd7f56384bba324229559b318d1 *13 Gomorrah.flac
41054bfb52714f89cb91b6219fcc7114 *14 Tangled Up In Blue.flac
ffp
01 How Sweet It Is.flac:b14ff0b66d49fb752e58fc07d078e099
02 Waiting For A Miracle.flac:a767c96de52ff9f3444aaa82da15f73a
03 You Never Can Tell.flac:f60e7ff013ec5a14783cfbd73ad755c9
04 Mississippi Moon.flac:d893936024989621c7dda6ee47d2b153
05 Lay Down Sally.flac:3011551f9692fca5a5bbb35872137fd5
06 My Sisters And Brothers.flac:e15ee28f8441309e602844250f51570c
07 Everybody Needs Somebody To Love.flac:13b034f4c864d9231acdaa3deed40de9
08 Shining Star.flac:341a7a195858e88061e96610d73f99e9
09 Strugglin' Man.flac:0a5e386b51173ebb4bd52bae40c8c2e0
10 And It Stoned Me.flac:322e50ab8b74fb63a51ae6eb9c512891
11 Tore Up Over You.flac:5c192438acba517482c1a6a05c1458a9
12 The Maker.flac:6ef0b33c6ffef56bd8118dff98969270
13 Gomorrah.flac:5a9e698ccd99e1b445355c3dbaef2681
14 Tangled Up In Blue.flac:c436b528dc57e24b94d4b06cbd1c4906

Comments
Add Comment
Other Sources (comments)
Jerry Garcia Band: DSBD>... (1) Jerry Garcia Band: DSBD > D... (0)
Date User Comment