Browse Collections Artists Sources   Search Dates

Add Show    List Management    Help


Garcia 03/09/74
Keystone, Berkeley, CA
Comments Add Comment    Source Collectors    Add to Collection    Add to Want List    History
Source # 136782 Other Sources
Entered by Joe Jupille
Checksums ffp , md5
Disc Counts 1 / 1
Media Size
Date Circulated
Date Added
08/02/2016
08/27/2016
Source Summary JGMS; Soundboard > Master Reel > DAT (48k) 
Source Information - Download Text | Download Zip
Jerry Garcia and Merl Saunders
Keystone
Berkeley, CA
03/09/1974

Set II partial

Source: Soundboard > Master Reel > DAT (48k)

Recored by Betty Cantor-Jackson



01   //(I'm A) Road Runner >
02   The Harder They Come
03   It Ain't No Use
04   Ain't No Woman (Like The One I've Got)
[missing] The Night They Drove Old Dixie Down



Jerry Garcia - guitar, vocals
Merl Saunders - keyboards
John Kahn - bass
Martin Fierro - saxophone, flute
E.W. Wainwright - drums



Notes:

- This recording has been provided by an anonymous source.
- Several clicks removed and one repair made.  Also level adjustments made.
- All files have been tagged


edited and mastered By SIRMick



shntool output:

    length     expanded size    cdr  WAVE problems  fmt   ratio  filename
    14:15.493     164254764 B   cxx   --   ---xx   flac  0.5662  jgms1974-03-09s2t01.flac
    12:08.667     139904044 B   cxx   --   ---xx   flac  0.5415  jgms1974-03-09s2t02.flac
    10:52.773     125332524 B   cxx   --   ---xx   flac  0.5595  jgms1974-03-09s2t03.flac
    11:23.533     131238444 B   cxx   --   ---xx   flac  0.5228  jgms1974-03-09s2t04.flac
    48:40.467     560729776 B                            0.5484  (4 files)

Show Checksums
ffp
jgms1974-03-09s2t01.flac:55b20f03439ed8671d09f69eec73b2ae
jgms1974-03-09s2t02.flac:01514521dc1a170708e261cfab434396
jgms1974-03-09s2t03.flac:852e04eb6118e9e7ad25e4b0021ca170
jgms1974-03-09s2t04.flac:3e62cb267bbfed3b1b5a48033180cf54
md5
dff96191608b73ad56219eca19f7e385 *jgms1974-03-09s2t01.flac
175e586e282062ed78f2a64490b7cca7 *jgms1974-03-09s2t02.flac
4b42e90b655522dd933b1c529ae9fcc1 *jgms1974-03-09s2t03.flac
aa8a72e40d68ae501dac3dd8fb56cbcb *jgms1974-03-09s2t04.flac

Comments
Add Comment
Other Sources (comments)
Garcia & Saunders: MSR >... (5)
Date User Comment