Browse Collections Artists Sources   Search Dates

Add Show    List Management    Help


Garcia 12/09/77
Gym, S.U.N.Y., Stony Brook, NY
Comments Add Comment    Source Collectors    Add to Collection    Add to Want List    History
Source # 137736 Other Sources
Entered by Joe Jupille
Checksums ffp , md5
Disc Counts 0 / 0
Media Size
Date Circulated
Date Added
02/07/2017
02/07/2017
Source Summary JGB' flac 24/88.2; (fix of shnid-137720) Phil Matera's Mc-> Reel 1st gen Reel (Maxell-UD135) 1/[email protected]/4 Teac X2000R-> Korg MR1000 DSD [email protected] 5.6MHz->AudioGate-> 24/88.2 Wave-> Wavelab6-> OzoneRx4a-> Ozone6A > CD Wave > TLH > Flac24 
Source Information - Download Text | Download Zip
Jerry Garcia Band (This is a fix of shnid-137720. The last 2 tracks of the second set have changed.)
Gymnasium, State University of New York
Stony Brook, New York
12-09-1977

Phil Matera's Mc-> Reel

1st gen Reel (Maxell-UD135) 1/[email protected]/4
Teac X2000R-> Korg MR1000 DSD [email protected] 5.6MHz->

AudioGate-> 24/88.2 Wave-> Wavelab6-> OzoneRx4a-> Ozone6A
CD Wave > TLH > Flac24

**patches from shn#77713 > Midnight Moonlight, Simple Twist Of Fate and Lonesome

Taper: Phil Matera  Transfer: John Hance

Set One:

1 The Harder They Come
2 Catfish John
3 That's What Love Will Make You Do
4 They Love Each Other
5 Knockin' On Heaven's Door
6 The Way You Do The Things You Do

Set Two:

1 Midnight Moonlight**
2 Gomorrah
3 Tore Up Over You
4 Simple Twist Of Fate**
5 Rubin And Cherise
6 The Night They Drove Old Dixie Down
7 Lonesome And A Long Way From Home**


Thank you Phil & JJ!
Salah
Febuary 7, 2017


    length     expanded size    cdr  WAVE problems  fmt   ratio  filename
    12:24.387     393929468 B   cxx   --   ---xx   flac  0.5545  jgb77-12-09s1t01.flac
    11:09.907     354514652 B   cxx   --   ---xx   flac  0.5474  jgb77-12-09s1t02.flac
    11:24.387     362177468 B   cxx   --   ---xx   flac  0.5585  jgb77-12-09s1t03.flac
     7:24.347     235148300 B   cxx   --   ---xx   flac  0.5560  jgb77-12-09s1t04.flac
    14:29.440     460107692 B   cxx   --   ---xx   flac  0.5615  jgb77-12-09s1t05.flac
    11:55.093     378427436 B   cxx   --   ---xx   flac  0.5675  jgb77-12-09s1t06.flac
    15:05.547     479215340 B   cxx   --   ---xx   flac  0.5334  jgb77-12-09s2t01.flac
     8:27.133     268375004 B   cxx   --   ---xx   flac  0.6193  jgb77-12-09s2t02.flac
     9:25.987     299520188 B   cxx   --   ---xx   flac  0.6327  jgb77-12-09s2t03.flac
    15:36.640     495669932 B   cxx   --   ---xx   flac  0.4309  jgb77-12-09s2t04.flac
    10:08.160     321838316 B   cxx   --   ---xx   flac  0.6303  jgb77-12-09s2t05.flac
     9:24.920     298955708 B   cxx   --   ---xx   flac  0.6197  jgb77-12-09s2t06.flac
    27:35.173     875917772 B   cxx   --   ---xx   flac  0.6046  jgb77-12-09s2t07.flac
   164:31.120    5223797276 B                            0.5669  (13 files)



Show Checksums
ffp
jgb77-12-09s1t01.flac:89aedc46966e517038a706802d7be01a
jgb77-12-09s1t02.flac:93b2e9760b4d90a5bc2b43c3733b2bd2
jgb77-12-09s1t03.flac:bb41f5b1a3e75951ef9b7f71df143022
jgb77-12-09s1t04.flac:4664e998c881bf16855f3c0c84e99c05
jgb77-12-09s1t05.flac:df084066b1b70677b6e19a4a04d5366c
jgb77-12-09s1t06.flac:ab4f8b638ee5863b4aa022e35370644b
jgb77-12-09s2t01.flac:87363a91f89342d6af8f7694c2cb92bc
jgb77-12-09s2t02.flac:05e7a2ca9cb171de4862f28185355e4c
jgb77-12-09s2t03.flac:073fbdac7a71328f0207e945d3451c64
jgb77-12-09s2t04.flac:577087cf8805c74aa1cd2aceb1c62eef
jgb77-12-09s2t05.flac:00f70af6e7bb538cccf4ce0796b5251c
jgb77-12-09s2t06.flac:def3e8b27dcdc12dce8da7269001646e
jgb77-12-09s2t07.flac:a8c87ca8821667110f45ffbcc9468dad

md5
d819f702e784901463cd50e495651504 *jgb77-12-09s1t01.flac
ef892f3479cfe8fe47a1db6444cda1f3 *jgb77-12-09s1t02.flac
b2d845b4011c629963ee57fbc1e72890 *jgb77-12-09s1t03.flac
c82c601c121d920c4d14b369703bc753 *jgb77-12-09s1t04.flac
8205312857932fa9bbf579f10bd78df9 *jgb77-12-09s1t05.flac
532a8e5d5177da798df63fb29ae643ce *jgb77-12-09s1t06.flac
424d80e38af39f25374b73852e22c53b *jgb77-12-09s2t01.flac
6c19c557d94421c02744faea80305c5e *jgb77-12-09s2t02.flac
41fbba15fabec55fc4def412d7690dfd *jgb77-12-09s2t03.flac
b9e9e24f959858bbdf1fd1a5fd37cbbd *jgb77-12-09s2t04.flac
8c0c17bebed46c9df0569c3f08c0b894 *jgb77-12-09s2t05.flac
dbe0c44edb84cfcde06bd07ca798f8a8 *jgb77-12-09s2t06.flac
b5ba0919d55173a5968cb5ab71829e81 *jgb77-12-09s2t07.flac


Comments
Add Comment
Other Sources (comments)
Jerry Garcia Band: FOB... (1) JGB, set II only: Unknown... (1) JGB, set II:... (0) JGB; flac24/88.2; Phil... (0) JGB; flac1644; Phil... (0) JGB; flac 1644; (fix of (0)
Date User Comment