Browse Collections Artists Sources   Search Dates

Add Show    List Management    Help


Garcia 02/15/78
Keystone, Berkeley, CA
Comments Add Comment    Source Collectors    Add to Collection    Add to Want List    History
Source # 137826 Other Sources
Entered by Joe Jupille
Checksums jgb1978-02-15.md5 , jgb1978-02-15.ffp
Disc Counts 0 / 0
Media Size Compressed: 279.47 MB (293048320 bytes)
Uncompressed: 849.27 MB (890523912 bytes)
Date Circulated
Date Added
02/13/2017
02/13/2017
Source Summary JGB; flac1644; Partial Unknown AUD kindly provided by wk & http://jgmf.blogspot.com/ Transfer: Maxell XLII > Nakamichi CR-5A > Edirol FA-66 > Wavelab 2448 > R8Brain > CD-Wave > TLH > FLAC 1644 tagged. Transfer by Andrew F. 02/2017 
Source Information - Download Text | Download Zip
JERRY GARCIA BAND
Keystone
Berkeley CA
02-15-1978

s1t01 Love in the Afternoon
s1t02 Simple Twist of Fate
s1t03 I Second that /Emotion
s1t04 Gomorrah
s1t05 Midnight Moonlight

s2t01 Lonesome and a Long Way from Home

Unknown AUD kindly provided by wk & http://jgmf.blogspot.com/

Transfer: Maxell XLII > Nakamichi CR-5A > Edirol FA-66 > Wavelab 2448 >
R8Brain > CD-Wave > TLH > FLAC 1644 tagged. Transfer by Andrew F. 02/2017

Notes: This appears to be segments from a single show; most of the 1st Set
(possibly missing an opening tune) and the final song of the 2nd set. The
date is based on currently posted setlists, although this could actually be
from any one of the four February '78 Keystone shows, can't confirm since
nothing else is circulating and posted lists are not complete at this time.

A nice clear mono recording. Intermittent crackly static during Second that
Emotion. Start of Simple Twist and Midnight Moonlight slightly clipped. Tape
flip or gap of about a minute in Second that Emotion, crossfaded at 10:49.

    length     expanded size    cdr  WAVE problems  fmt   ratio  filename
    11:48.24      124947692 B   ---   --   ---xx   flac  0.3154  jgb1978-02-15s1t01.flac
    14:45.66      156269276 B   ---   --   ---xx   flac  0.3250  jgb1978-02-15s1t02.flac
    11:13.32      118792508 B   ---   --   ---xx   flac  0.3271  jgb1978-02-15s1t03.flac
     6:14.65       66126524 B   ---   --   ---xx   flac  0.3215  jgb1978-02-15s1t04.flac
    10:49.19      114528332 B   ---   --   ---xx   flac  0.3369  jgb1978-02-15s1t05.flac
    29:16.43      309859580 B   ---   --   ---xx   flac  0.3361  jgb1978-02-15s2t01.flac
    84:08.24      890523912 B                            0.3290  (6 files)

No errors occured.


Show Checksums
jgb1978-02-15.md5
07552f031c42f3c45b9a94b3d865b612 *jgb1978-02-15s1t01.flac
60e7afcbfd7362cb79e5bd9bd3f484d1 *jgb1978-02-15s1t02.flac
4f3c4355da7d5daa46056e346bf511e8 *jgb1978-02-15s1t03.flac
2c523a0b3ba7d96ec40d14329db93908 *jgb1978-02-15s1t04.flac
d7ef42752e05688a5b76c4a642c798f6 *jgb1978-02-15s1t05.flac
c09aa3acf7ad4e1ce002625396ad9343 *jgb1978-02-15s2t01.flac
jgb1978-02-15.ffp
jgb1978-02-15s1t01.flac:a6abba13d596fe751b3fcb83c41bc56b
jgb1978-02-15s1t02.flac:505b9db4548817f6b4319fca9d93ec4a
jgb1978-02-15s1t03.flac:667b961031cbe848b05dd06601e54ef8
jgb1978-02-15s1t04.flac:ac5749c907e2c526406a5ac69a634e14
jgb1978-02-15s1t05.flac:27e203aced4e705648e297128ba916d8
jgb1978-02-15s2t01.flac:16d3c151a523cd77bfea00432b03956d

Comments
Add Comment
Date User Comment