Browse Collections Artists Sources   Search Dates

Add Show    List Management    Help


Garcia 03/17/78
Capitol Theater, Passaic, NJ
Comments Add Comment    Source Collectors    Add to Collection    Add to Want List    History
Source # 138358 Other Sources
Entered by Joe Jupille
Checksums jgb1978-03-17.md5 , jgb1978-03-17.ffp
Disc Counts 0 / 0
Media Size Compressed: 267.3 MB (280281088 bytes)
Uncompressed: 811.25 MB (850655380 bytes)
Date Circulated
Date Added
05/27/2017
05/27/2017
Source Summary JGB; late show; flac1644; Unknown AUD kindly provided by wk & http://jgmf.blogspot.com/ Transfer: Maxell XLII > Nakamichi CR-5A > Edirol FA-66 > Wavelab 2448 > R8Brain > CD-Wave > TLH > FLAC 1644 tagged. Transfer by Andrew F. 05/2017 
Source Information - Download Text | Download Zip
JERRY GARCIA BAND
Capitol Theater
Passaic NJ
03-17-1978
Late Show

01 Jon Scher intro
02 The Harder They Come
03 Mission in the Rain
04 Russian Lullaby
05 crowd
06 Tore Up Over You
07 Love in the Afternoon
08 I'll Be With Thee
09 The Night They Drove Old Dixie Down
10 crowd
11 Encore: Rhapsody in Red

Unknown AUD kindly provided by wk & http://jgmf.blogspot.com/

Transfer: Maxell XLII > Nakamichi CR-5A > Edirol FA-66 > Wavelab 2448 >
R8Brain > CD-Wave > TLH > FLAC 1644 tagged. Transfer by Andrew F. 05/2017

Note: Mono recording, good clarity & mix, marred by occasional yelling close
to the mic. Several songs cut-in already in progress. JGMF's listening notes:
http://jgmf.blogspot.com/2012/11/hiatus-hiatus-lnjg1978-03-17jgblateaud.html



    length     expanded size    cdr  WAVE problems  fmt   ratio  filename
     0:26.15        4621724 B   ---   --   ---xx   flac  0.3237  jgb1978-03-17t01.flac
    10:58.00      116071244 B   ---   --   ---xx   flac  0.3267  jgb1978-03-17t02.flac
    10:36.06      112204556 B   ---   --   ---xx   flac  0.3249  jgb1978-03-17t03.flac
    13:48.23      146113340 B   ---   --   ---xx   flac  0.3150  jgb1978-03-17t04.flac
     0:42.08        7427660 B   ---   --   ---xx   flac  0.3112  jgb1978-03-17t05.flac
     8:47.26       93023996 B   ---   --   ---xx   flac  0.3360  jgb1978-03-17t06.flac
    10:12.18      107999180 B   ---   --   ---xx   flac  0.3320  jgb1978-03-17t07.flac
     5:04.44       53729132 B   ---   --   ---xx   flac  0.3351  jgb1978-03-17t08.flac
    10:14.60      108450764 B   ---   --   ---xx   flac  0.3342  jgb1978-03-17t09.flac
     1:44.13       18376220 B   ---   --   ---xx   flac  0.3279  jgb1978-03-17t10.flac
     7:48.35       82637564 B   ---   --   ---xx   flac  0.3453  jgb1978-03-17t11.flac
    80:22.23      850655380 B                            0.3293  (11 files)

No errors occured.


Show Checksums
jgb1978-03-17.md5
81ced3342c64ed13c26715106c1462e1 *jgb1978-03-17t01.flac
259df5ccbc7e701faadd771650a266cb *jgb1978-03-17t02.flac
7a282213dbc812f35c7dd13f44179c47 *jgb1978-03-17t03.flac
f93e2c3d531952cd0737cf4fa80ff9a6 *jgb1978-03-17t04.flac
4a069abd6541101eafa2a2f0d4a7f991 *jgb1978-03-17t05.flac
27f9c16cf6649ce3d4b34e892291d3a3 *jgb1978-03-17t06.flac
305b4d12cb9107ad64843502e5305d4e *jgb1978-03-17t07.flac
89484b78e2aebaf11101e6e41029301c *jgb1978-03-17t08.flac
243abc3b4114ed05f7aea86a031dea75 *jgb1978-03-17t09.flac
bb0d7e9a515fd85819600fbb3282067b *jgb1978-03-17t10.flac
44f83a78c1186fa3f25eabeaa3f22f4e *jgb1978-03-17t11.flac
jgb1978-03-17.ffp
jgb1978-03-17t01.flac:6fe096a97feb6320fa0da89b3f1c2f82
jgb1978-03-17t02.flac:c91924b19ed05d26cdbd12f451b7e626
jgb1978-03-17t03.flac:5cf7428d552568706d73ca84819b88de
jgb1978-03-17t04.flac:41a228e24ffa46e6d795df5c506f392b
jgb1978-03-17t05.flac:fc2d2d6c4d53bf3692f1769cfce65f89
jgb1978-03-17t06.flac:e5bc2382b5f1c1ec7a0073fe987b6d64
jgb1978-03-17t07.flac:25264820619c59a6e2e8385d582e1d69
jgb1978-03-17t08.flac:0950306ae9f81ec9d2d8a651d385f219
jgb1978-03-17t09.flac:5945bdfc58b8fc99b75bcff2ecba8fd0
jgb1978-03-17t10.flac:4653394d0cc75df86d1b8ab04e260b96
jgb1978-03-17t11.flac:76ca004eb6f261670746c6e77ac5ca1b

Comments
Add Comment
Other Sources (comments)
Jerry Garcia Band: Early... (0) JGB, early show: FM > ? >... (1) JGB, early show,... (0) JGB, early show,... (0) JGB; early show; flac1644;... (0) JGB; early show; flac16;... (0) JGB; early show; flac16;... (0) JGB; late show; flac1644;... (0) interview; flac1644; Susan... (0)
Date User Comment