Browse Collections Artists Sources   Search Dates

Add Show    List Management    Help


Garcia 09/02/94
Warfield Theater, San Francisco, CA
Comments Add Comment    Source Collectors    Add to Collection    Add to Want List    History
Source # 138958 Other Sources
Entered by Joe Jupille
Checksums Garcia1994-09-02.ffp , Garcia1994-09-02.md5
Disc Counts 0 / 0
Media Size
Uncompressed: 721.5 MB (756549288 bytes)
Date Circulated
Date Added
08/04/2017
08/04/2017
Source Summary JGB; flac1644; partial: Audience recording > Sonic Studios DSM-6P > Sony D6 > Maxell XL-IIS master; Transfer: Master > Denon 790R > Kenwood A-522 amplifier > Kenwood GE-622 Equalizer > DAT line out > line in on Tascam DR-2D > wav 16/44.1. Recorded and transferred by Steve "Ballsup" Hagar. Lineage: wav > iZotope RX 6 Advanced > iZotope Ozone 5 Advanced > CD Wave > TLH > Flac 16, edited and mastered SIRMick August 2017. 
Source Information - Download Text | Download Zip
Jerry Garcia Band
Warfield Theatre
San Francisco, CA
09/02/94


Source: Audienc recording > Sonic Studios DSM-6P > Sony D6 > Maxell XL-IIS master
Transfer: Master > Denon 790R > Kenwood A-522 amplifier > Kenwood GE-622 Equalizer > DAT line out > line in on Tascam DR-2D > wav 16/44.1
                 Recorded and transferred by Steve "Ballsup" Hagar
Lineage: wav > iZotope RX 6 Advanced > iZotope Ozone 5 Advanced > CD Wave > TLH > Flac 16


Set I

[MISSING] Cats Under The Stars
01   //He Ain't Give You None
02   Struggling Man
03   That's What Love WIll Make You Do
[MISSING] What A Wonderful World
[MISSING] My Sisters And Brothers
[MISSING] Deal


Set II

01   // Shining Star//
02   //Dear Prudence
Lay Down Sally
[MISSING] The Night They Drove Old Dixie Down
[MISSING] Midnight Moonlight




Comments:

Steve, to quote him had "been on a crazy taping run" He lives in Alaska and had come down for Woodstock 94 and then after flew to
California to take in several shows.   This was the last day of his trip and he was near burn out.   That's why he only taped part of the show.



Thanks to Steve for sending this to me.


edited and mastered
SIRMick
August 2017


shntool output:

    length     expanded size    cdr  WAVE problems  fmt   ratio  filename
     9:03.71       95952236 B   ---   --   ---xx   flac  0.7011  jgb1994-09-02s1t01.flac
     8:43.74       92431292 B   ---   --   ---xx   flac  0.7035  jgb1994-09-02s1t02.flac
     9:01.51       95552396 B   ---   --   ---xx   flac  0.7006  jgb1994-09-02s1t03.flac
    18:50.25      199390844 B   ---   --   ---xx   flac  0.7474  jgb1994-09-02s2t01.flac
    13:29.18      142749980 B   ---   --   ---xx   flac  0.7476  jgb1994-09-02s2t02.flac
    12:19.48      130472540 B   ---   --   ---xx   flac  0.7499  jgb1994-09-02s2t03.flac
    71:28.62      756549288 B                            0.7307  (6 files)

Show Checksums
Garcia1994-09-02.ffp
jgb1994-09-02s1t01.flac:62efda7cc49af633f7128e3279ebcdd0
jgb1994-09-02s1t02.flac:27c46e9d89e1ace77dfa4e62ed49257c
jgb1994-09-02s1t03.flac:d3abdd40764e390c7cffb6adb29f00dc
jgb1994-09-02s2t01.flac:0cfc9a3241d32c1abc98b48b5b18f7d5
jgb1994-09-02s2t02.flac:5d20dcf9f38c82324ab68d8ffbf13e64
jgb1994-09-02s2t03.flac:cafe05b56e8a7508abdfb819011d3897
Garcia1994-09-02.md5
fbc510465c265e91ed3ee67c677da7b7 *jgb1994-09-02s1t01.flac
d72f1015eb31abb09dccbe13237b0a1a *jgb1994-09-02s1t02.flac
71417957f9797959d81ef39cd007dd1a *jgb1994-09-02s1t03.flac
709bd20d8e241ce74861ce03d14749ff *jgb1994-09-02s2t01.flac
4ef1b8313490a861a4bfc97da4245c20 *jgb1994-09-02s2t02.flac
cf7eb57c37ef8284c7a7d4154f30a8a2 *jgb1994-09-02s2t03.flac

Comments
Add Comment
Other Sources (comments)
Jerry Garcia Band: AUD... (0)
Date User Comment