Browse Collections Artists Sources   Search Dates

Add Show    List Management    Help


Phish 09/30/00
Thomas & Mack Center, Las Vegas, NV
Comments Add Comment    Source Collectors    Add to Collection    Add to Want List    History
Source # 140852 Other Sources
Entered by Matt Vernon
Checksums ffp , shn-md5 , st5
Disc Counts 0 / 0
Media Size
Date Circulated
Date Added

01/28/2018
Source Summary flac16 44.1khz Schoeps mk4v>kc5>cmc6>V2>AD1000>D8. Location: DFC/FOB/ORTF 50' back in Hat. DAT > SHN: Sony PCM-R500 > Zefiro ZA2 (48>44.1) > Soundforge 4.5a > CDwav > mkwact > Plextor 12x/4x/32x. ([email protected]
Source Information - Download Text | Download Zip
Phish
Thomas & Mack Center - Las Vegas, NV
September 29, 2000

Source: Schoeps mk4v>kc5>cmc6>V2>AD1000>D8

Location: DFC/FOB/ORTF 50' back in Hat

DAT > SHN: Sony PCM-R500 > Zefiro ZA2 (48>44.1) > Soundforge 4.5a >
CDwav > mkwact > Plextor 12x/4x/32x
([email protected])

Disc One:

01: Carini
02: Rift
03: Frankenstein
04: Mellow Mood
05: Wilson >
06: Spock's Brain >
07: Bathtub Gin >
08: Character Zero


Disc Two:

01: Set II Intro
02: Dinner and a Movie
03: Moma Dance >
04: 2001
05: Fluffhead
06: Meatstick
07: Walk This Way*
08: Rapper's Delight*
09: You Shook Me (All Night Long)*
10: E: Were's an American Band*


*with Kid Rock


Notes: Cool Edit Pro used for set fade ins/outs.

- - - - - notes by mfv Jan 2018 - - - - -
This source was initially circulated I’m guessing in late 2000, but it was never assigned a shnid.

There are many sources in db for 9/30/2000 as of Jan 2018.

Here is the procedure I used to check this wasn’t one of them.

First I eliminated shnid’s for the same source (2047 <-> 135130, 87592 <-> 124144, 1641 <-> 96892).

Next I divided the remaining sources into “OTS” like and “FOB” like.  This source is “FOB” like. I used the crowd intro to “Dinner and Movie” of set 2 to perform this comparison since there was PA volume and other adjustments in set 1 which convolute the comparison between sources.

“OTS” like - #1619, #1637, #34620, #124144, #122276
“FOB” like - #96892, #135130 and this source

Then I compared the “FOB” like sources.

#96892 - nearby crowd and talking clearly different than #135130 and this source.

#135130 - d2t01 at ~ 1:17 there are some characteristic “whoa’s”, a dog bark mimic then “I’m gonna take up a bit of space” right as Dinner and a Movie starts.

In this source the “whoa’s”  and a dog bark mimic of #135130 can be heard a ways away but not the “I’m gonna take up a bit of space”. So this source and #135130 are near to each other.

Compared to #135130, this source seems less muffled , more open or brighter sounding.

“Set 1 levels start very low and slowly work up until they reach height about 3 minutes into d1t2 Rift, balance of show at that level.”

Set 2 and encore are not continuous. There is fade out after set 2 before encore starts.

shntool

    length     expanded size    cdr  WAVE problems  fmt   ratio  filename
     8:15.28       87383900 B   ---   --   ---xx   flac  0.4455  ph00-09-29d1t01.flac
     6:06.38       64651820 B   ---   --   ---xx   flac  0.4870  ph00-09-29d1t02.flac
     5:02.55       53402204 B   ---   --   ---xx   flac  0.5333  ph00-09-29d1t03.flac
     3:04.48       32570540 B   ---   --   ---xx   flac  0.4713  ph00-09-29d1t04.flac
     9:37.69      101945132 B   ---   --   ---xx   flac  0.5164  ph00-09-29d1t05.flac
     5:39.50       59917244 B   ---   --   ---xx   flac  0.4789  ph00-09-29d1t06.flac
    16:57.31      179471756 B   ---   --   ---xx   flac  0.5079  ph00-09-29d1t07.flac
     7:38.30       80861804 B   ---   --   ---xx   flac  0.5537  ph00-09-29d1t08.flac
     0:19.68        3511580 B   ---   --   ---xx   flac  0.4664  ph00-09-29d2t01.flac
     3:33.17       37613228 B   ---   --   ---xx   flac  0.5439  ph00-09-29d2t02.flac
    10:48.16      114344876 B   ---   --   ---xx   flac  0.5625  ph00-09-29d2t03.flac
    10:01.23      106070540 B   ---   --   ---xx   flac  0.5181  ph00-09-29d2t04.flac
    17:22.50      183926444 B   ---   --   ---xx   flac  0.5110  ph00-09-29d2t05.flac
     6:51.16       72538076 B   ---   --   ---xx   flac  0.5431  ph00-09-29d2t06.flac
     2:55.19       30914732 B   ---   --   ---xx   flac  0.5971  ph00-09-29d2t07.flac
     5:27.38       57772220 B   ---   --   ---xx   flac  0.5426  ph00-09-29d2t08.flac
     4:18.53       45635900 B   ---   --   ---xx   flac  0.5853  ph00-09-29d2t09.flac
     4:25.33       46823660 B   ---   --   ---xx   flac  0.5697  ph00-09-29d2t10.flac
   128:26.07     1359355656 B                            0.5219  (18 files)

I renamed tracks and converted to flac(8) using Xact.

shn-md5, st5 and ffp checksums included for reference.




Show Checksums
ffp
ph00-09-29d1t01.flac:ebec38ebb55be0fdfe0af5e8278f75be
ph00-09-29d1t02.flac:75b32833bf43a14c7585507862262660
ph00-09-29d1t03.flac:a2099f2df216388ff98f677b23e2033f
ph00-09-29d1t04.flac:b0b57f1d2eca9f93d404b4f1e9625199
ph00-09-29d1t05.flac:8981b30151caaa4be8e98b2aa7659959
ph00-09-29d1t06.flac:afe22e1c9119231ccc277db6b78bbd93
ph00-09-29d1t07.flac:a379bad854d6085903a60c2186f5f054
ph00-09-29d1t08.flac:1c1209971e7917f1c49676351e956c91
ph00-09-29d2t01.flac:4b46a52e59d9e90c1c155b075a670121
ph00-09-29d2t02.flac:4002116930e5a6b3eceaedab247f5867
ph00-09-29d2t03.flac:62a8eaf3e0e2d7ab2059b816cc68e5a1
ph00-09-29d2t04.flac:a3b2b293e46a9a4e421944580418f54d
ph00-09-29d2t05.flac:a208326a1530ed9abfdf36f559aad117
ph00-09-29d2t06.flac:335d0118bb36f8f31cc91377dac729a8
ph00-09-29d2t07.flac:661360f06b8453cdee65e8e503737949
ph00-09-29d2t08.flac:b90c839ce47d4a0d8996cac24803464a
ph00-09-29d2t09.flac:17d1dcc12c2592af0be8b00671d1e08c
ph00-09-29d2t10.flac:653410eb0ac59f05e44fbd595254d200
shn-md5
e0c1854f12ea8000fa9ba9c92966900d *ph00-09-29d1t01.shn
a27c83e6deffde04e423ab0846b8ad34 *ph00-09-29d1t02.shn
059c65dabe49216b8fe0bd6935d59350 *ph00-09-29d1t03.shn
9c3eac6b6cbffa59ba44beb56ec4381a *ph00-09-29d1t04.shn
1a3fb45db526d6ed400b445bcde7386f *ph00-09-29d1t05.shn
d4fa47d16cd08eaed56c480c05698be9 *ph00-09-29d1t06.shn
d264b519b18b416d9a5234d06e8bc6b2 *ph00-09-29d1t07.shn
3e4b98829c7bac90ac44b8b398382d7a *ph00-09-29d1t08.shn
e863909efa846a8447cab90d09a6eb2d *ph00-09-29d2t01.shn
8adcefa7c72afb57b829052e5c7e78de *ph00-09-29d2t02.shn
8ecbc2bbd9a1c03086c27472b13dd948 *ph00-09-29d2t03.shn
3bba0aa5bb6ecb23c389c37a594a3f95 *ph00-09-29d2t04.shn
52bf9c0c015eceec041eb5b2a3421cdb *ph00-09-29d2t05.shn
8a659017b9c35a375c104a15fb4a9c96 *ph00-09-29d2t06.shn
018312ba58d3a228892c7efb48ea79da *ph00-09-29d2t07.shn
b2ba43e2e0cc591a123524a644eeaea9 *ph00-09-29d2t08.shn
6b1b884b8ecfd07487398f2bba0b59b9 *ph00-09-29d2t09.shn
674304ee0f0081f1f0c59ef9e6ca31ef *ph00-09-29d2t10.shn

st5
ebec38ebb55be0fdfe0af5e8278f75be [shntool] ph00-09-29d1t01.shn
75b32833bf43a14c7585507862262660 [shntool] ph00-09-29d1t02.shn
a2099f2df216388ff98f677b23e2033f [shntool] ph00-09-29d1t03.shn
b0b57f1d2eca9f93d404b4f1e9625199 [shntool] ph00-09-29d1t04.shn
8981b30151caaa4be8e98b2aa7659959 [shntool] ph00-09-29d1t05.shn
afe22e1c9119231ccc277db6b78bbd93 [shntool] ph00-09-29d1t06.shn
a379bad854d6085903a60c2186f5f054 [shntool] ph00-09-29d1t07.shn
1c1209971e7917f1c49676351e956c91 [shntool] ph00-09-29d1t08.shn
4b46a52e59d9e90c1c155b075a670121 [shntool] ph00-09-29d2t01.shn
4002116930e5a6b3eceaedab247f5867 [shntool] ph00-09-29d2t02.shn
62a8eaf3e0e2d7ab2059b816cc68e5a1 [shntool] ph00-09-29d2t03.shn
a3b2b293e46a9a4e421944580418f54d [shntool] ph00-09-29d2t04.shn
a208326a1530ed9abfdf36f559aad117 [shntool] ph00-09-29d2t05.shn
335d0118bb36f8f31cc91377dac729a8 [shntool] ph00-09-29d2t06.shn
661360f06b8453cdee65e8e503737949 [shntool] ph00-09-29d2t07.shn
b90c839ce47d4a0d8996cac24803464a [shntool] ph00-09-29d2t08.shn
17d1dcc12c2592af0be8b00671d1e08c [shntool] ph00-09-29d2t09.shn
653410eb0ac59f05e44fbd595254d200 [shntool] ph00-09-29d2t10.shn

Comments
Add Comment
Other Sources (comments)
shnf or... (13) Schoeps cmc6/mk4v >... (0) FOB Schoeps cmc6/mk21 >... (1) Neumann km150> Lunatec V2>... (0) Schoeps mk41 > kc5 > m222 >... (0) Schoeps cmc6/mk41(dfc ots)... (0) Webcast Audio (SBD) > WAV... (1) B&K 4011's > Lunatec V2 >... (0) AKG 460b/ck61 > V2 > SBM1 >... (0) (FOB) Schoeps mk21 > kc5 >... (0) flac16; Schoeps... (0) flac16; AKG... (0) flac16, 48kHz;... (0)
Date User Comment