Browse Collections Artists Sources   Search Dates

Add Show    List Management    Help


Garcia 03/11/78
Leroy Theater, Pawtucket, RI
Comments Add Comment    Source Collectors    Add to Collection    Add to Want List    History
Source # 141085 Other Sources
Entered by Joe Jupille
Checksums jgb1978-03-11s2.md5 , jgb1978-03-11s2.ffp
Disc Counts 0 / 0
Media Size Compressed: 363.91 MB (381591552 bytes)
Uncompressed: 640.03 MB (671119944 bytes)
Date Circulated
Date Added
02/18/2018
02/18/2018
Source Summary JGB, flac1644; set II; Matrix of SBD ID-135199 & AUD ID-14931. Transfer: WAV > Wavelab > CD-Wave > TLH > FLAC 1644 tagged, Andrew F 02/2018 
Source Information - Download Text | Download Zip
JERRY GARCIA BAND
Leroy Theater
Pawtucket RI
03-11-1978
Second Set
*Matrix*

01 Love in the Afternoon
02 Rhapsody in Red
03 Knockin' On Heaven's Door
04 Tore Up Over You
05 I'll Be With Thee
06 Lonesome and a Long Way from Home

Sources: Matrix of SBD ID-135199 & AUD ID-14931.

Transfer: WAV > Wavelab > CD-Wave > TLH > FLAC 1644 tagged, Andrew F 02/2018

Note: Small gaps in SBD source; LITA 0:00 > 0:14 & TUOY 2:56 > 4:09, those
parts back-filled with ID-97682. Thanks to CBass for assistance with sources!

    length     expanded size    cdr  WAVE problems  fmt   ratio  filename
    11:54.24      126006092 B   ---   --   ---xx   flac  0.5587  jgb1978-03-11s2t01.flac
     9:07.11       96516716 B   ---   --   ---xx   flac  0.5957  jgb1978-03-11s2t02.flac
    13:12.30      139779404 B   ---   --   ---xx   flac  0.5454  jgb1978-03-11s2t03.flac
     8:50.69       93654332 B   ---   --   ---xx   flac  0.5887  jgb1978-03-11s2t04.flac
     5:12.39       55128572 B   ---   --   ---xx   flac  0.5573  jgb1978-03-11s2t05.flac
    15:07.17      160034828 B   ---   --   ---xx   flac  0.5719  jgb1978-03-11s2t06.flac
    63:24.40      671119944 B                            0.5685  (6 files)

No errors occured.


Show Checksums
jgb1978-03-11s2.md5
de64b017e26c9d7696d567024cf616fc *jgb1978-03-11s2t01.flac
e60b072d8c401ee469626b23d1117b6e *jgb1978-03-11s2t02.flac
521b08d8fe1b0a7c69aeb34dd97df147 *jgb1978-03-11s2t03.flac
53f75219f92779f8549c5b02c6e24d3a *jgb1978-03-11s2t04.flac
a99217e87f7bebe832e47afd34e2a89c *jgb1978-03-11s2t05.flac
dd5ff5074f77fc54e82c9a67452d558c *jgb1978-03-11s2t06.flac
jgb1978-03-11s2.ffp
jgb1978-03-11s2t01.flac:2de01bfe4ad4334e7dd523d336d11afd
jgb1978-03-11s2t02.flac:7a4e58e5c106dc7a1fe75ba4366e9203
jgb1978-03-11s2t03.flac:9a499115d9603bede328e5910260eabf
jgb1978-03-11s2t04.flac:085ba3fa8cd6f0ed047a5d4bd3a4d3c3
jgb1978-03-11s2t05.flac:15890cfb10a95244728280aaa9f3718c
jgb1978-03-11s2t06.flac:466105dfccedb44de6d789378b8b5400

Comments
Add Comment
Other Sources (comments)
Jerry Garcia Band: MAC... (3) JGB: pre-show interview:... (1) JGB; flac1644; set II; MSC... (0)
Date User Comment