Browse Collections Artists Sources   Search Dates

Add Show    List Management    Help


Garcia 08/03/94
Giants Stadium, East Rutherford, NJ
Comments Add Comment    Source Collectors    Add to Collection    Add to Want List    History
Source # 141185 Other Sources
Entered by Joe Jupille
Checksums traffic1994-08-03.ffp , traffic1994-08-03.md5
Disc Counts 0 / 0
Media Size
Date Circulated
Date Added
02/24/2018
02/26/2018
Source Summary Traffic w/ JG sit-in; SBD > Master Dat (44.1k); Transfer Info: Master Dat (Sony PCM-R500) > Sound Devices 744T > Samplitude Pro X3 Suite > FLAC/16 (2 Discs Audio / 1 Disc FLAC). All Transfers and Mastering by Charlie Miller, [email protected], February 23, 2018 Patch Info: Nakamichi CM300/CP4 > Cassette Master > CD supplies: Riding High (0:00 - 3:23) 
Source Information - Download Text | Download Zip
Traffic - August 3, 1994
Giants Stadium - East Rutherford, NJ

Recording Info:
SBD > Master Dat (44.1k)

Transfer Info:
Master Dat (Sony PCM-R500) > Sound Devices 744T > Samplitude Pro X3 Suite > FLAC/16
(2 Discs Audio / 1 Disc FLAC)

All Transfers and Mastering by Charlie Miller
[email protected]
February 23, 2018

Patch Info:
Nakamichi CM300/CP4 > Cassette Master > CD supplies:
Riding High (0:00 - 3:23)

Notes:
-- Opened for The Grateful Dead
-- Jerry Garcia played guitar on Dear Mr. Fantasy
-- Thanks to Jon Pasternak and seaweed420 for the patch source

Setlist:
01 - Riding High
02 - Some Kinda Woman
03 - Medicated Goo
04 - Mozambique
05 - Rock And Roll Show
06 - Rainmaker
07 - Empty Pages
08 - Low Spark Of High Heeled Boys
09 - Light Up Or Leave Me Alone
10 - John Barleycorn
11 - Dear Mr. Fantasy


SHNTOOL OUTPUT:
    length     expanded size    cdr  WAVE problems  fmt   ratio  filename
     6:24.12       67765868 B   ---   --   ---xx   flac  0.6140  01 Riding High.flac
     5:22.21       56850236 B   ---   --   ---xx   flac  0.5833  02 Some Kinda Woman.flac
     5:31.25       58447244 B   ---   --   ---xx   flac  0.6024  03 Medicated Goo.flac
     5:44.06       60695756 B   ---   --   ---xx   flac  0.5300  04 Mozambique.flac
     7:08.59       75638012 B   ---   --   ---xx   flac  0.5391  05 Rock And Roll Show.flac
     7:59.15       84530924 B   ---   --   ---xx   flac  0.5125  06 Rainmaker.flac
     4:23.44       46496732 B   ---   --   ---xx   flac  0.5640  07 Empty Pages.flac
    13:43.13      145207820 B   ---   --   ---xx   flac  0.5481  08 Low Spark Of High Heeled Boys.flac
    13:18.59      140906012 B   ---   --   ---xx   flac  0.5762  09 Light Up Or Leave Me Alone.flac
     7:54.03       83620700 B   ---   --   ---xx   flac  0.5203  10 John Barleycorn.flac
     8:03.22       85252988 B   ---   --   ---xx   flac  0.5646  11 Dear Mr Fantasy.flac
    85:32.54      905412292 B                            0.5576  (11 files)


Show Checksums
traffic1994-08-03.ffp
01 Riding High.flac:05c57ba23b7a85c3f1470c2bbcef2cb8
02 Some Kinda Woman.flac:da92c106820b1b874a80b851e01c2ea0
03 Medicated Goo.flac:5365011002551ca847d1d4da747c86e9
04 Mozambique.flac:7df357d9789be17515a971c7a68baf99
05 Rock And Roll Show.flac:53e36306e10bd3065e61a7d55c571d5f
06 Rainmaker.flac:74eaa2c1b41f18d2d005db9710f6c49c
07 Empty Pages.flac:0ddd4373630137ddda756a7111f0fb43
08 Low Spark Of High Heeled Boys.flac:63f6d8d02e1529519abdeb2e0fe94e71
09 Light Up Or Leave Me Alone.flac:b39367e42604924900ab286fe18fe00f
10 John Barleycorn.flac:81821155c7c5cdd781fac443e292e7a8
11 Dear Mr Fantasy.flac:27eb538be4491b89d274cf2c510e9007
traffic1994-08-03.md5
f810112c5c5c46e04dccd03ced54b85c *01 Riding High.flac
361a646ef5151e4147fdff780cbc6b78 *02 Some Kinda Woman.flac
aa247323470b5c5af65938bb5f1951bc *03 Medicated Goo.flac
0c2598c4c86e6c5ba1baa3335ea9dd68 *04 Mozambique.flac
0d22353647d237e1fd5da9e6e198b2b3 *05 Rock And Roll Show.flac
beb29fb5d04c5e2d7d08330929873624 *06 Rainmaker.flac
19098ebebbfa5bafda17656f4a7102e3 *07 Empty Pages.flac
8cb1009cb32b8a1be346a510221fee40 *08 Low Spark Of High Heeled Boys.flac
18db136b11d5d30bfa83b883da48ef94 *09 Light Up Or Leave Me Alone.flac
6c6fda871e697503e35e33e217b32a4a *10 John Barleycorn.flac
2981b8369f77cb3aa7c32bb52775f377 *11 Dear Mr Fantasy.flac

Comments
Add Comment
Other Sources (comments)
Traffic w/ JG sit-in;... (0)
Date User Comment