Browse Collections Artists Sources   Search Dates

Add Show    List Management    Help


Allman Brothers Band 07/21/91
Telluride Music Festival, Telluride, CO
Comments Add Comment    Source Collectors    Add to Collection    Add to Want List    History
Source # 141406 Other Sources
Entered by Matt Vernon
Checksums ffp
Disc Counts 0 / 0
Media Size
Date Circulated
Date Added

03/18/2018
Source Summary flac16 44.1khz ource: Sbd/Aud mix with Neumann TLM 170 > DATs Transfer: DAT 60ES > M-Audio Audiophile USB > WAV > Flac frontend transfer: [email protected] 
Source Information - Download Text | Download Zip
Allman Brothers Band
July 21, 1991
Telluride Music Festival
Telluride, Colorado

Source:  Sbd/Aud mix with Neumann TLM 170 > DATs
Transfer: DAT 60ES > M-Audio Audiophile USB > WAV > Flac frontend

transfer: [email protected] October 2004

Disc 1
1.  Don't Want You No More >
2.  It's Not My Cross to Bear >
3.  Stateboro Blues
4.  Blue Sky
5.  Low Down Dirty Mean
6.  End of the Line
7.  Loaded Dice
8.  Elizabeth Reed
9.  Gambler's Roll

Disc 2
1.  Good Clean Fun
2.  One Way Out
3.  Southbound

Encores
4.  Kind of Bird
5.  Dreams
6.  Jessica
7.  Whipping post

Notes:
d1t01 Light static and level adjustment

Very nice sounding sbd/aud mix.  Show is typical of some of the early 90's ABB.

- - - -

    length     expanded size    cdr  WAVE problems  fmt   ratio  filename
     2:24.61       25545116 B   ---   --   ---xx   flac  0.5930  abb1991-07-21d1t01.flac
     6:27.11       68292716 B   ---   --   ---xx   flac  0.5425  abb1991-07-21d1t02.flac
     7:09.22       75727388 B   ---   --   ---xx   flac  0.5428  abb1991-07-21d1t03.flac
     8:42.30       92151404 B   ---   --   ---xx   flac  0.5614  abb1991-07-21d1t04.flac
     6:47.26       71855996 B   ---   --   ---xx   flac  0.5021  abb1991-07-21d1t05.flac
     5:49.23       61617740 B   ---   --   ---xx   flac  0.5226  abb1991-07-21d1t06.flac
     4:29.69       47613932 B   ---   --   ---xx   flac  0.4956  abb1991-07-21d1t07.flac
    19:16.73      204090140 B   ---   --   ---xx   flac  0.5384  abb1991-07-21d1t08.flac
     7:27.00       78850844 B   ---   --   ---xx   flac  0.5050  abb1991-07-21d1t09.flac
     8:47.03       92969900 B   ---   --   ---xx   flac  0.4916  abb1991-07-21d2t01.flac
    10:14.31      108382556 B   ---   --   ---xx   flac  0.5399  abb1991-07-21d2t02.flac
     9:19.02       98612348 B   ---   --   ---xx   flac  0.5371  abb1991-07-21d2t03.flac
     8:48.41       93235676 B   ---   --   ---xx   flac  0.5399  abb1991-07-21d2t04.flac
    12:14.34      129557612 B   ---   --   ---xx   flac  0.5157  abb1991-07-21d2t05.flac
    15:20.67      162445628 B   ---   --   ---xx   flac  0.5256  abb1991-07-21d2t06.flac
    15:01.35      159018764 B   ---   --   ---xx   flac  0.5445  abb1991-07-21d2t07.flac
   148:20.03     1569967760 B                            0.5305  (16 files)

- - - -

abb1991-07-21d1t01.flac:d4fe7052aa3a9993ef04799525132fb7
abb1991-07-21d1t02.flac:8847963d991ef720dfa0dfc722fc1ada
abb1991-07-21d1t03.flac:be0248ad3afef740fa6a2f84b9160698
abb1991-07-21d1t04.flac:19e3012923cd9adf640705e56cabfaa4
abb1991-07-21d1t05.flac:2c384aa4eb333cfa75880613d609e56f
abb1991-07-21d1t06.flac:b3070ea70cfd9d39b2bdf0447ba2ee71
abb1991-07-21d1t07.flac:716180efe193429a9d4b2d774d756d09
abb1991-07-21d1t08.flac:7bf2d6b843952154b061f78ee13cc75a
abb1991-07-21d1t09.flac:2551bc06d33bb5efb11228e9bedea58c
abb1991-07-21d2t01.flac:84801b54fa5976c29c46bd354e88c0fc
abb1991-07-21d2t02.flac:bfa8c3ffd25e95b42344d529fc64c834
abb1991-07-21d2t03.flac:ed9866000c37742d174df09d0a167a65
abb1991-07-21d2t04.flac:41397f96200e7dd0efa0c38dfbe61bb0
abb1991-07-21d2t05.flac:f21886a9c199e8c0aeb4c16f4e7f70a4
abb1991-07-21d2t06.flac:8329c6ac77ec4f62485b2d5cbffeee3b
abb1991-07-21d2t07.flac:411825932d34a26f65d88480367d3fa7


Show Checksums
ffp
abb1991-07-21d1t01.flac:d4fe7052aa3a9993ef04799525132fb7
abb1991-07-21d1t02.flac:8847963d991ef720dfa0dfc722fc1ada
abb1991-07-21d1t03.flac:be0248ad3afef740fa6a2f84b9160698
abb1991-07-21d1t04.flac:19e3012923cd9adf640705e56cabfaa4
abb1991-07-21d1t05.flac:2c384aa4eb333cfa75880613d609e56f
abb1991-07-21d1t06.flac:b3070ea70cfd9d39b2bdf0447ba2ee71
abb1991-07-21d1t07.flac:716180efe193429a9d4b2d774d756d09
abb1991-07-21d1t08.flac:7bf2d6b843952154b061f78ee13cc75a
abb1991-07-21d1t09.flac:2551bc06d33bb5efb11228e9bedea58c
abb1991-07-21d2t01.flac:84801b54fa5976c29c46bd354e88c0fc
abb1991-07-21d2t02.flac:bfa8c3ffd25e95b42344d529fc64c834
abb1991-07-21d2t03.flac:ed9866000c37742d174df09d0a167a65
abb1991-07-21d2t04.flac:41397f96200e7dd0efa0c38dfbe61bb0
abb1991-07-21d2t05.flac:f21886a9c199e8c0aeb4c16f4e7f70a4
abb1991-07-21d2t06.flac:8329c6ac77ec4f62485b2d5cbffeee3b
abb1991-07-21d2t07.flac:411825932d34a26f65d88480367d3fa7

Comments
Add Comment
Other Sources (comments)
Source: Sbd/Aud mix with... (0)
Date User Comment