Browse Collections Artists Sources   Search Dates

Add Show    List Management    Help


Garcia 10/08/68
The Matrix, San Francisco, CA
Comments Add Comment    Source Collectors    Add to Collection    Add to Want List    History
Source # 141647 Other Sources
Entered by Joe Jupille
Checksums Garcia1968-10-08.md5 , Garcia1968-10-08.ffp
Disc Counts 0 / 0
Media Size
Uncompressed: 5.94 GB (6378402160 bytes)
Date Circulated
Date Added
04/06/2018
04/06/2018
Source Summary Hartbeats: Reel Master > Reel (1st gen) > Reel (2nd gen) - provided by Will Boswell; Transfer: Reel > Technics RS1506 > Tascam DA3000 (1 bit DSD) > dB poweramp > wav 24/96 - Transferred by Matt Smith; Lineage: wav > iZotope RX6 Advanced > iZotope Ozone 5 Advanced > CD Wave > TLH > Flac 24; edited and mastered SIRMick April 2018. 
Source Information - Download Text | Download Zip
Mickey And The Hartbeats
The Matrix,
San Francisco, CA
10/08/1968


Source: Reel Master > Reel (1st gen)  > Reel (2nd gen) - provided by Will Boswell
Transfer:  Reel > Technics RS1506 > Tascam DA3000 (1 bit DSD) > dB poweramp > wav 24/96 - Transferred by Matt Smith
Lineage: wav > iZotope RX6 Advanced > iZotope Ozone 5 Advanced > CD Wave > TLH > Flac 24


Set I

01   tuning/banter *
02   Clementine Jam
03   Clementine Jam >
04   The Eleven Jam >
05   Death Don't Have No Mercy
06   banter/tuning
07   The//Seven
08   tuning
09   Dark Star Jam >
10   Cosmic Charlie
11   Next Time You See Me Jam
12   Ja//m
13   The Other One >
14   Jam


Set II

01    tuning/intros
02   Jam (1)
03   Jam (1)
04   Jam (1)
05   Prisoner Blues (1)
06   Jam (2) #




Jerry Garcia and Phil Lesh  (Set I only)
Mickey Hart
Bill Kreutzmann
Jack Casady (Set II only)
Elvin Bishop and band members (1)
Mickey Hart, Elvin Bishop and Jack Casady (2)




Comments:

- The other sources for this show, show that there were three sets.  I checked with Mike Dolguskin and we are both of the opinion that there were only two sets.
- Garcia "." *
- I recognise a "Soul Serenade" theme developing around 11:44 #

Notes:

- DC Offset removed.
- Attenuated a low level hum in right channel of Set I.
- Some level adjustments have been made.
- A few dropouts have repaired.
- There is a tape flip in "The Seven" which has been smoothed with a crossfade, an unknown amount is missing.
- There is a tape flip in track 12, Set I which has been smoothed with a crossfade, an unknown amout is missing



Thanks to Will Boswell for providing this source and Matt Smith for the transfer.


edited and mastered
SIRMick
April 2018


shntool output:

    length     expanded size    cdr  WAVE problems  fmt   ratio  filename
     2:57.093     102005804 B   cxx   --   ---xx   flac  0.6272  hartbeats1968-10-08s1t01.flac
     3:12.973     111152684 B   cxx   --   ---xx   flac  0.6444  hartbeats1968-10-08s1t02.flac
    12:19.533     425971244 B   cxx   --   ---xx   flac  0.6457  hartbeats1968-10-08s1t03.flac
    10:28.173     361827884 B   cxx   --   ---xx   flac  0.6397  hartbeats1968-10-08s1t04.flac
     8:44.840     302307884 B   cxx   --   ---xx   flac  0.6282  hartbeats1968-10-08s1t05.flac
     2:39.533      91891244 B   cxx   --   ---xx   flac  0.5964  hartbeats1968-10-08s1t06.flac
    16:19.800     564364844 B   cxx   --   ---xx   flac  0.6455  hartbeats1968-10-08s1t07.flac
     2:11.933      75993644 B   cxx   --   ---xx   flac  0.6261  hartbeats1968-10-08s1t08.flac
    12:08.653     419704364 B   cxx   --   ---xx   flac  0.6480  hartbeats1968-10-08s1t09.flac
     4:25.693     153039404 B   cxx   --   ---xx   flac  0.6658  hartbeats1968-10-08s1t10.flac
    17:38.067     609446444 B   cxx   --   ---xx   flac  0.6495  hartbeats1968-10-08s1t11.flac
    13:09.960     455017004 B   cxx   --   ---xx   flac  0.6354  hartbeats1968-10-08s1t12.flac
    14:08.080     488494124 B   cxx   --   ---xx   flac  0.6444  hartbeats1968-10-08s1t13.flac
     7:33.480     261204524 B   cxx   --   ---xx   flac  0.6542  hartbeats1968-10-08s1t14.flac
     3:04.320     106168364 B   cxx   --   ---xx   flac  0.6253  hartbeats1968-10-08s2t01.flac
     3:25.027     118095404 B   cxx   --   ---xx   flac  0.6764  hartbeats1968-10-08s2t02.flac
     7:40.027     264975404 B   cxx   --   ---xx   flac  0.6660  hartbeats1968-10-08s2t03.flac
     7:32.840     260835884 B   cxx   --   ---xx   flac  0.6665  hartbeats1968-10-08s2t04.flac
    13:16.947     459041324 B   cxx   --   ---xx   flac  0.6424  hartbeats1968-10-08s2t05.flac
    21:36.640     746864684 B   cxx   --   ---xx   flac  0.6485  hartbeats1968-10-08s2t06.flac
   184:33.613    6378402160 B                            0.6458  (20 files)
Show Checksums
Garcia1968-10-08.md5
b92233a1a04c0a66ea9a67926251981e *hartbeats1968-10-08s1t01.flac
7902443caf9d84226b7364c892845e7b *hartbeats1968-10-08s1t02.flac
74aa138d511712b492051a609a541674 *hartbeats1968-10-08s1t03.flac
5683f569ca6174d51e3acfb7bba0f00c *hartbeats1968-10-08s1t04.flac
4abf746b66f44e41e322afc34ed508fc *hartbeats1968-10-08s1t05.flac
bbd6c48a060a4d1958f27ecd14c4ffc0 *hartbeats1968-10-08s1t06.flac
82cea6a6cb9f4395d23678b22d8df33e *hartbeats1968-10-08s1t07.flac
d542324e1e167262eed3fea512dc0a22 *hartbeats1968-10-08s1t08.flac
84f39b81bb12eac02001a4f033591a66 *hartbeats1968-10-08s1t09.flac
6c055c98e9f71803216dd7fa8e1fb728 *hartbeats1968-10-08s1t10.flac
3a7aa5b78d7430b0e498f646a1dc7acc *hartbeats1968-10-08s1t11.flac
612e8a3c8bd4c02036e283d23b5d9ba6 *hartbeats1968-10-08s1t12.flac
147a8bdfe4d4ed5671d3edd803dd5f54 *hartbeats1968-10-08s1t13.flac
28ec4034c721cc150bf3e500849c6f18 *hartbeats1968-10-08s1t14.flac
2fe914caee0eb6f01b62e74f424348d2 *hartbeats1968-10-08s2t01.flac
0d2893a31eec4e1c56054f4f95e31d45 *hartbeats1968-10-08s2t02.flac
92e6734e25d24311a268efb652a88e0c *hartbeats1968-10-08s2t03.flac
9c03d49e6e00dbf6c8294729b7cba398 *hartbeats1968-10-08s2t04.flac
d037e6f57537045c296ddf51340069a5 *hartbeats1968-10-08s2t05.flac
fd3a6633267aafd537bf7fb2e5a36fed *hartbeats1968-10-08s2t06.flac
Garcia1968-10-08.ffp
hartbeats1968-10-08s1t01.flac:94895389bc0406a2a0ab5f1b310c787a
hartbeats1968-10-08s1t02.flac:603af183f249bbeec0cbd4398f0e9f67
hartbeats1968-10-08s1t03.flac:f2250a4e996056e50094231152a8887d
hartbeats1968-10-08s1t04.flac:c2a41e559879994234e03c2dc4f880d8
hartbeats1968-10-08s1t05.flac:c0dcc605c481a364ee4f70f7da334b0a
hartbeats1968-10-08s1t06.flac:3beeafc956ea5f9b96323cdd8d4eab42
hartbeats1968-10-08s1t07.flac:d839c151a6c2bc36e8c8e355d75f6ea2
hartbeats1968-10-08s1t08.flac:01e857d5f540613118f4012261af5937
hartbeats1968-10-08s1t09.flac:574333df71e452c57f54e64c0254d4a0
hartbeats1968-10-08s1t10.flac:acf2ffc76dadfbedeba843a62974ab4c
hartbeats1968-10-08s1t11.flac:8a767d3bcb2c1e5fa526681a61f4f452
hartbeats1968-10-08s1t12.flac:936fe4d34d2339b27309860ca2ba6d50
hartbeats1968-10-08s1t13.flac:4ab28f49324f6dec7ae55a7641e925f4
hartbeats1968-10-08s1t14.flac:4a66d2a8078a1bff61338298b5324722
hartbeats1968-10-08s2t01.flac:e0729bf7c2b8944cb3ca59b8fe5bc5c1
hartbeats1968-10-08s2t02.flac:49a26fe95b417e2f96f3a2f82c44d182
hartbeats1968-10-08s2t03.flac:f02cc241e6e86acda263d200812e3ddf
hartbeats1968-10-08s2t04.flac:7347572c1a3e0901dd03e42f3e45ec1b
hartbeats1968-10-08s2t05.flac:e5c326551f891da004c60470a718a567
hartbeats1968-10-08s2t06.flac:231b80fc7f661629cdb6d3b5c4889b40

Comments
Add Comment
Other Sources (comments)
Hartbeats; some diginoise... (1) Hartbeats; SBD MR->Reel... (0) Disc 1 only; optimal... (0) Hartbeats; flac24, most... (0) Hartbeats; flac1648; Reel... (0)
Date User Comment