Browse Collections Artists Sources   Search Dates

Add Show    List Management    Help


Grateful Dead 04/06/89
Crisler Arena, Ann Arbor, MI
Comments Add Comment    Source Collectors    Add to Collection    Add to Want List    History
Source # 141803 Other Sources
Entered by Matt Vernon
Checksums ffp , flac-md5
Disc Counts 0 / 0
Media Size
Date Circulated
Date Added
04/30/2018
04/30/2018
Source Summary flac16; Source Info: Ted Mattes' Master Audience PCM (Nakamichi DMP-100 deck, Sony ESX-HiFi/L750 tape); Schoeps CMC4/MK4 mics, ortf (OTS); Transfer Info: Master PCM (Sony SL-10)> Sony PCM 601ESD > Behringer Ultramatch Pro > Tascam DA-3000 (16 bit/44.1k)> Samplitude > Adobe Audition 3.0 > TLH flac16 
  Archive
Source Information - Download Text | Download Zip
Grateful Dead
Crisler Arena
Ann Arbor, MI
Thursday April 6th 1989

Source Info:
Ted Mattes' Master Audience PCM (Nakamichi DMP-100 deck, Sony ESX-HiFi/L750 tape); Schoeps CMC4/MK4 mics, ortf (OTS)

Transfer Info:
Master PCM (Sony SL-10)> Sony PCM 601ESD > Behringer Ultramatch Pro > Tascam DA-3000 (16 bit/44.1k)> Samplitude > Adobe Audition 3.0 > TLH flac16

Notes:
- Thanks to Ted Mattes for the PCM master
- Thanks to Charlie Miller for the transfer and coordinating this effort

Mastered by Scott Clugston
April 24, 2018

Set One:
t01 - Crowd
t02 - Touch Of Grey
t03 - Little Red Rooster
t04 - Brown Eyed Women
t05 - Mama Tried >
t06 - Mexicali Blues
t07 - Althea
t08 - When I Paint My Masterpiece
t09 - Bird Song
t10 - Promised Land

Set 2:
t11 - Crowd
t12 - Scarlet Begonias >
t13 - Fire On The Mountain
t14 - Playin' In The Band >
t15 - Built To Last >
t16 - Drums >
t17 - Space >
t18 - I Will Take You Home >
t19 - The Other One >
t20 - Wharf Rat >
t21 - Around And Around >
t22 - Playin' In The Band Reprise
t23 - Encore Break
t24 - Brokedown Palace



    length     expanded size    cdr  WAVE problems  fmt   ratio  filename
     3:05.30       32704604 B   ---   --   ---xx   flac  0.4420  gd89-04-06 t01 Crowd.flac
     6:12.02       65625548 B   ---   --   ---xx   flac  0.5681  gd89-04-06 t02 Touch Of Grey.flac
    10:49.45      114589484 B   ---   --   ---xx   flac  0.5187  gd89-04-06 t03 Little Red Rooster.flac
     5:53.48       62382140 B   ---   --   ---xx   flac  0.5197  gd89-04-06 t04 Brown Eyed Women.flac
     2:35.10       27365564 B   ---   --   ---xx   flac  0.5337  gd89-04-06 t05 Mama Tried.flac
     5:55.29       62690252 B   ---   --   ---xx   flac  0.5347  gd89-04-06 t06 Mexicali Blues.flac
     7:01.03       74271500 B   ---   --   ---xx   flac  0.5231  gd89-04-06 t07 Althea.flac
     6:11.42       65543228 B   ---   --   ---xx   flac  0.5234  gd89-04-06 t08 When I Paint My Masterpiece.flac
    13:21.38      141385820 B   ---   --   ---xx   flac  0.5288  gd89-04-06 t09 Bird Song.flac
     4:32.09       48002012 B   ---   --   ---xx   flac  0.5796  gd89-04-06 t10 Promised Land.flac
     3:21.25       35515244 B   ---   --   ---xx   flac  0.4289  gd89-04-06 t11 Crowd.flac
     9:36.61      101749916 B   ---   --   ---xx   flac  0.5353  gd89-04-06 t12 Scarlet Begonias.flac
    13:41.55      144953804 B   ---   --   ---xx   flac  0.5413  gd89-04-06 t13 Fire On The Mountain.flac
    12:44.50      134887244 B   ---   --   ---xx   flac  0.5457  gd89-04-06 t14 Playin' In The Band.flac
     7:21.49       77907692 B   ---   --   ---xx   flac  0.5404  gd89-04-06 t15 Built To Last.flac
    10:08.20      107298284 B   ---   --   ---xx   flac  0.5096  gd89-04-06 t16 Drums.flac
     6:50.71       72491036 B   ---   --   ---xx   flac  0.4265  gd89-04-06 t17 Space.flac
     4:07.04       43580252 B   ---   --   ---xx   flac  0.4456  gd89-04-06 t18 I Will Take You Home.flac
     7:43.09       81694412 B   ---   --   ---xx   flac  0.5470  gd89-04-06 t19 The Other One.flac
     9:45.45      103299884 B   ---   --   ---xx   flac  0.5017  gd89-04-06 t20 Wharf Rat.flac
     4:00.46       42444236 B   ---   --   ---xx   flac  0.5591  gd89-04-06 t21 Around & Around.flac
     3:54.45       41383484 B   ---   --   ---xx   flac  0.5287  gd89-04-06 t22 Playin' In The Band Reprise.flac
     2:45.29       29174252 B   ---   --   ---xx   flac  0.5513  gd89-04-06 t23 Encore Break.flac
     5:50.60       61881164 B   ---   --   ---xx   flac  0.4934  gd89-04-06 t24 Brokedown Palace.flac
   167:30.00     1772821056 B                            0.5218  (24 files)


Show Checksums
ffp
gd89-04-06 t01 Crowd.flac:f65241755ee18b280eb62af02b88e282
gd89-04-06 t02 Touch Of Grey.flac:3005914096669bb922ee15e3d94c6812
gd89-04-06 t03 Little Red Rooster.flac:09e41df5af41eb858d1746cfb6d1d96c
gd89-04-06 t04 Brown Eyed Women.flac:f2aeb24a778df98d8524b3ced3d9a274
gd89-04-06 t05 Mama Tried.flac:b5b2d8d3d1e97fc6f9441e1e1c858c9f
gd89-04-06 t06 Mexicali Blues.flac:7c30ca6f1e92ec6b38214b785d481dc0
gd89-04-06 t07 Althea.flac:59b35aee8a85316610d5b7b5c3fcfbde
gd89-04-06 t08 When I Paint My Masterpiece.flac:f3b5fe0a87279ec1a500d3df13bdd625
gd89-04-06 t09 Bird Song.flac:b1409fbabfac0e894d65d508bc64f7c6
gd89-04-06 t10 Promised Land.flac:5c52a7b67631727a14cad0065645c793
gd89-04-06 t11 Crowd.flac:8edc72d2c5bfa5e47551ca8896b91f13
gd89-04-06 t12 Scarlet Begonias.flac:ae7d47e4a24b8344506c50ec006990f6
gd89-04-06 t13 Fire On The Mountain.flac:c0d66ce8452318596130c4f006915db0
gd89-04-06 t14 Playin' In The Band.flac:55e0da65a4463b580ffa1b78f5d08fba
gd89-04-06 t15 Built To Last.flac:6b3489c310ff363e87eae2b73437da64
gd89-04-06 t16 Drums.flac:681c3278034c67fae9286da428cad45f
gd89-04-06 t17 Space.flac:629a5c5ec367d20a329881fe96a2bec1
gd89-04-06 t18 I Will Take You Home.flac:3a9d2c8ba6e25dc3b09e4c90e3c7fe8a
gd89-04-06 t19 The Other One.flac:5ae8674a4758d096496799a4350e94f4
gd89-04-06 t20 Wharf Rat.flac:8b81cc2950a70be4960ce1d72b84dabf
gd89-04-06 t21 Around & Around.flac:6dba35ca2597270cb12e29ac7cb60ea9
gd89-04-06 t22 Playin' In The Band Reprise.flac:2c2137e6326ae88a0dbb4df8d7a8beb1
gd89-04-06 t23 Encore Break.flac:42001f72826496e5ab39f374975d4ffc
gd89-04-06 t24 Brokedown Palace.flac:607f5a4cc9c322d20990db14cf1d359f
flac-md5
cc25f909f650086b426f93c98a73fef1 *gd89-04-06 t01 Crowd.flac
3e00fb9194d90aeed54d27772e3526e7 *gd89-04-06 t02 Touch Of Grey.flac
3aece858622baf500ee72c2dae580fa2 *gd89-04-06 t03 Little Red Rooster.flac
135f4dc9303f4a6acbe43825714907d3 *gd89-04-06 t04 Brown Eyed Women.flac
96ad4710df3246b55bc8d5339fbe48d6 *gd89-04-06 t05 Mama Tried.flac
a54e63186a97b54f5a6b14b5f2bd88a4 *gd89-04-06 t06 Mexicali Blues.flac
5cd5e10ea8eda87fd11d15e8f4021094 *gd89-04-06 t07 Althea.flac
0c78b7cca668faa80444f222184af352 *gd89-04-06 t08 When I Paint My Masterpiece.flac
d7d614c1a4cd902d3b882bb846312719 *gd89-04-06 t09 Bird Song.flac
5bfb880de388f0eef6584241852d4a1a *gd89-04-06 t10 Promised Land.flac
d20fcd9f29e6f70bed3a3a810730b20f *gd89-04-06 t11 Crowd.flac
6492411a97bd17e1c4c292fae4400843 *gd89-04-06 t12 Scarlet Begonias.flac
49c1f1eae7ea90a7c5929399ecbf3b66 *gd89-04-06 t13 Fire On The Mountain.flac
36c5bfc834482c6611d01c433a8c04b6 *gd89-04-06 t14 Playin' In The Band.flac
ed0e08a45285d64696cb61ad405f5f66 *gd89-04-06 t15 Built To Last.flac
a795d49deb40c33e58f4e349ad0e37fc *gd89-04-06 t16 Drums.flac
8c928c8a1193fb27e5fff752b8bd65a7 *gd89-04-06 t17 Space.flac
a3a3cbb3a93a16b97a795dfb2dbe6152 *gd89-04-06 t18 I Will Take You Home.flac
279784c6b6fcba3f7f88ba16c6a7d43c *gd89-04-06 t19 The Other One.flac
046f73406302ee194fcf0fd176a39113 *gd89-04-06 t20 Wharf Rat.flac
eef8d9f9cb7e4066a0d7e52bb743abce *gd89-04-06 t21 Around & Around.flac
b646dc7319cdfa93bd3f64ce0d9a4c64 *gd89-04-06 t22 Playin' In The Band Reprise.flac
af19c0e5fd575344c07b68a26e63777e *gd89-04-06 t23 Encore Break.flac
faa0160d1bdc56512788db8a89841521 *gd89-04-06 t24 Brokedown Palace.flac

Comments
Add Comment
Other Sources (comments)
Healy Ultra Mix - sbd+aud>... (2) complete; Soundboard... (1) flac16; Recording... (0) flac16; source: aud... (0) flac16; matrix... (0) flac16; Taper: Greg... (0) flac16; Recorded &... (0) flac16; (original... (0) flac16; Matrix 2... (0) DTS-Audio-CD 5.1... (0)
Date User Comment