Browse Collections Artists Sources   Search Dates

Add Show    List Management    Help


Garcia 10/08/68
The Matrix, San Francisco, CA
Comments Add Comment    Source Collectors    Add to Collection    Add to Want List    History
Source # 141875 Other Sources
Entered by Joe Jupille
Checksums jg1968-10-08..ffp , jg1968-10-08..md5
Disc Counts 0 / 0
Media Size Compressed: 1.03 GB (1106915328 bytes)
Date Circulated
Date Added
08/06/2018
05/06/2018
Source Summary Hartbeats; flac1648; Reel Master > Reel (1st gen) > Reel (2nd gen) - provided by Will Boswell; Transfer: Reel > Technics RS1506 > Tascam DA3000 (1 bit DSD) > dB poweramp > wav 24/96 - Transferred by Matt Smith; Lineage: wav > iZotope RX6 Advanced > iZotope Ozone 5 Advanced > CD Wave > TLH > Flac 24; edited and mastered SIRMick April 2018. 
Source Information - Download Text | Download Zip
Mickey And The Hartbeats
The Matrix,
San Francisco, CA
10/08/1968


Source: Reel Master > Reel (1st gen)  > Reel (2nd gen) - provided by Will Boswell
Transfer:  Reel > Technics RS1506 > Tascam DA3000 (1 bit DSD) > dB poweramp > wav 24/96 - Transferred by Matt Smith
Lineage: wav > iZotope RX6 Advanced > iZotope Ozone 5 Advanced > CD Wave > TLH > Flac 24

This file set is 16 bit @ 48 htz

Set I

01   tuning/banter *
02   Clementine Jam
03   Clementine Jam >
04   The Eleven Jam >
05   Death Don't Have No Mercy
06   banter/tuning
07   The//Seven
08   tuning
09   Dark Star Jam >
10   Cosmic Charlie
11   Next Time You See Me Jam
12   Ja//m
13   The Other One >
14   Jam


Set II

01    tuning/intros
02   Jam (1)
03   Jam (1)
04   Jam (1)
05   Prisoner Blues (1)
06   Jam (2) #




Jerry Garcia and Phil Lesh  (Set I only)
Mickey Hart
Bill Kreutzmann
Jack Casady (Set II only)
Elvin Bishop and band members (1)
Mickey Hart, Elvin Bishop and Jack Casady (2)




Comments:

- The other sources for this show, show that there were three sets.  I checked with Mike Dolguskin and we are both of the opinion that there were only two sets.
- Garcia "." *
- I recognise a "Soul Serenade" theme developing around 11:44 #

Notes:

- DC Offset removed.
- Attenuated a low level hum in right channel of Set I.
- Some level adjustments have been made.
- A few dropouts have repaired.
- There is a tape flip in "The Seven" which has been smoothed with a crossfade, an unknown amount is missing.
- There is a tape flip in track 12, Set I which has been smoothed with a crossfade, an unknown amout is missing



Thanks to Will Boswell for providing this source and Matt Smith for the transfer.


edited and mastered
SIRMick
April 2018


shntool output:
    length     expanded size    cdr  WAVE problems  fmt   ratio  filename
     2:57.093      34001964 B   cxx   --   ---xx   flac  0.4608  hartbeats1968-10-08s1t01.flac
     3:12.973      37050924 B   cxx   --   ---xx   flac  0.5095  hartbeats1968-10-08s1t02.flac
    12:19.533     141990444 B   cxx   --   ---xx   flac  0.5209  hartbeats1968-10-08s1t03.flac
    10:28.173     120609324 B   cxx   --   ---xx   flac  0.5125  hartbeats1968-10-08s1t04.flac
     8:44.840     100769324 B   cxx   --   ---xx   flac  0.4776  hartbeats1968-10-08s1t05.flac
     2:39.533      30630444 B   cxx   --   ---xx   flac  0.3975  hartbeats1968-10-08s1t06.flac
    16:19.800     188121644 B   cxx   --   ---xx   flac  0.5319  hartbeats1968-10-08s1t07.flac
     2:11.933      25331244 B   cxx   --   ---xx   flac  0.4679  hartbeats1968-10-08s1t08.flac
    12:08.653     139901484 B   cxx   --   ---xx   flac  0.5311  hartbeats1968-10-08s1t09.flac
     4:25.693      51013164 B   cxx   --   ---xx   flac  0.5842  hartbeats1968-10-08s1t10.flac
    17:38.067     203148844 B   cxx   --   ---xx   flac  0.5526  hartbeats1968-10-08s1t11.flac
    13:09.960     151672364 B   cxx   --   ---xx   flac  0.4967  hartbeats1968-10-08s1t12.flac
    14:08.080     162831404 B   cxx   --   ---xx   flac  0.5116  hartbeats1968-10-08s1t13.flac
     7:33.480      87068204 B   cxx   --   ---xx   flac  0.5334  hartbeats1968-10-08s1t14.flac
     3:04.320      35389484 B   cxx   --   ---xx   flac  0.4409  hartbeats1968-10-08s2t01.flac
     3:25.027      39365164 B   cxx   --   ---xx   flac  0.5863  hartbeats1968-10-08s2t02.flac
     7:40.027      88325164 B   cxx   --   ---xx   flac  0.5702  hartbeats1968-10-08s2t03.flac
     7:32.840      86945324 B   cxx   --   ---xx   flac  0.5683  hartbeats1968-10-08s2t04.flac
    13:16.947     153013804 B   cxx   --   ---xx   flac  0.5019  hartbeats1968-10-08s2t05.flac
    21:36.640     248954924 B   cxx   --   ---xx   flac  0.5125  hartbeats1968-10-08s2t06.flac
   184:33.613    2126134640 B                            0.5206  (20 files)


Show Checksums
jg1968-10-08..ffp
hartbeats1968-10-08s1t01.flac:e7ea8abdb5352de4a22039fa631af448
hartbeats1968-10-08s1t02.flac:64bef7252cec4cab6f7653f8cae04504
hartbeats1968-10-08s1t03.flac:f09183f1ce507ba73ec4393e54476238
hartbeats1968-10-08s1t04.flac:35998261b26ebb98767004acd10a21d0
hartbeats1968-10-08s1t05.flac:3694402ea0c814214d187f022b8a1b6b
hartbeats1968-10-08s1t06.flac:1aba176cfd0885529309862e849bb45b
hartbeats1968-10-08s1t07.flac:79c59e396c424c7efaa7a3dd7c5fc05b
hartbeats1968-10-08s1t08.flac:ca5b6701bd1fd610fd3aa5d42e8c7a22
hartbeats1968-10-08s1t09.flac:7b236fc23136253aecd7c36e992af760
hartbeats1968-10-08s1t10.flac:5e18bc9b37bb77ab4ef6b0424db0f96c
hartbeats1968-10-08s1t11.flac:d7e7318d464377a5276d04ac90f32e36
hartbeats1968-10-08s1t12.flac:9a1b5a3ced4a7d325a77b5c859967994
hartbeats1968-10-08s1t13.flac:86070e362c9ecbfdb41fb4094be7a2b1
hartbeats1968-10-08s1t14.flac:70491c963bc9973d09d16d685362f235
hartbeats1968-10-08s2t01.flac:61147a4d0364673c694bbec2acdb16a8
hartbeats1968-10-08s2t02.flac:16cc6837c609cc3ac12a92f46a1b2445
hartbeats1968-10-08s2t03.flac:4444daf256c9fb8d2abf57abbe01b278
hartbeats1968-10-08s2t04.flac:bb92edd68e24c68b7fe5f357e24e08de
hartbeats1968-10-08s2t05.flac:a43325966a95383b20b670b00fdb452a
hartbeats1968-10-08s2t06.flac:05ca9a872e30d08e5fc0c43ba68ce70a
jg1968-10-08..md5
11d46b708dbba0cccb88a841ff21a280 *hartbeats1968-10-08s1t01.flac
1f06f4d620a4fd32ec0c1c11e700f35b *hartbeats1968-10-08s1t02.flac
9647b9676ba6f26964c7ffc53270e4a3 *hartbeats1968-10-08s1t03.flac
0190cde9e6cd3904d7c9499463ac8b4f *hartbeats1968-10-08s1t04.flac
9d2adc3cb09012366a7bcd28ceabc376 *hartbeats1968-10-08s1t05.flac
2b5d03d0d6373b0064c38ce4c85754a7 *hartbeats1968-10-08s1t06.flac
bd935deff3d04bf8c01bcf1ef2777ece *hartbeats1968-10-08s1t07.flac
4c58b8f9c2e80e9814f04c2cadca1cd3 *hartbeats1968-10-08s1t08.flac
8cef73e4f6676b3afc5d5a23ff2352d1 *hartbeats1968-10-08s1t09.flac
1c9a20036cecb2792e2a0458e66abab0 *hartbeats1968-10-08s1t10.flac
cf9cb27df8f199ea8344d9f54e70c7a6 *hartbeats1968-10-08s1t11.flac
f670698c2bcd4089a89682810c0fd0f9 *hartbeats1968-10-08s1t12.flac
a64a618c946bf96f0fbd5413a8e5521c *hartbeats1968-10-08s1t13.flac
28f691e5ad831fe69ff8f254c2b1f493 *hartbeats1968-10-08s1t14.flac
8892247e11762881066df2a0876965b1 *hartbeats1968-10-08s2t01.flac
ed747878b20e156110d0e23831051b2c *hartbeats1968-10-08s2t02.flac
0d69cc8aaf25856afc2520c5c2f57048 *hartbeats1968-10-08s2t03.flac
98484403b967bcca5596db25fd86f003 *hartbeats1968-10-08s2t04.flac
483253ceee945024ac732e354bf4bb2f *hartbeats1968-10-08s2t05.flac
63bd30fbf89a352c64b612082465c7d3 *hartbeats1968-10-08s2t06.flac

Comments
Add Comment
Other Sources (comments)
Hartbeats; some diginoise... (1) Hartbeats; SBD MR->Reel... (0) Disc 1 only; optimal... (0) Hartbeats; flac24, most... (0) Hartbeats: Reel Master >... (0)
Date User Comment