Browse Collections Artists Sources   Search Dates

Add Show    List Management    Help


Garcia 06/04/74
Lion's Share, San Anselmo, CA
Comments Add Comment    Source Collectors    Add to Collection    Add to Want List    History
Source # 141971 Other Sources
Entered by Joe Jupille
Checksums jg1974-06-04.ffp , jg1974-06-04.xxxxxx.jgms.sbd.gems.flac16.shntool_len.txt
Disc Counts 0 / 0
Media Size Compressed: 685 MB (718274560 bytes)
Date Circulated
Date Added
05/16/2018
05/16/2018
Source Summary JGMS; flac 16; SBD > Recorded on two 10" 1/2trk 7.5ips reels Master Reels > PCM transfer at 16 bit / 44.056kHz; recording was gratefully supplied by PO and Stucco TINA Holmes 
Source Information - Download Text | Download Zip
Jerry Garcia and Merl Saunders
Tuesday, June 4, 1974
Lion's Share,
60 Red Hill Avenue,
San Anselmo, CA, 94960
Venue Capacity - 200

Recorded on two 10" 1/2trk 7.5ips reels
Master Reels > PCM transfer at 16 bit / 44.056kHz

Transfer- Sony L-750ESX-HFB Dynamicron EXCELLENT SUPER HIFI VIDEO CASSETTE->
Sony SLO-1800 STEREO VIDEOCASSETTE RECORDER->
Sony PCM-601ESD DIGITAL AUDIO PROCESSOR-> SP/DIF->
Mytek Stereo 192 Sample Rate Converter-> archival 44.1kHz/24bit->
SP/DIF->RME FIREFACE 800-> FireWire 400->
Lenovo K450e Desktop PC-> WaveLab 6.11

This recording was gratefully supplied by PO and Stucco TINA Holmes.
Eternal gratitude for Betty Cantor and Rex Jackson

Speed Correction by Jason Chastain
Mastering by Jamie Waddell
Track, FLAC and Pack by John Wenzel

16 bit 44.1kHz FLAC
a gems Betamania Release May 2018

-Set 1-
01 Darben The Redd Foxx (17:54)
02 Expressway (To Your Heart) (17:19)
03 I Second That Emotion (14:20)
04 Wondering Why (18:16)
05 Soul Roach (8:31)

-Set 2-
06 All Blues (25:45)
07 New York City * (7:54)
08 Harder They Come (17:52)
09 The Night They Drove Old Dixie Down (6:35)

Lineup
Jerry Garcia - guitar, vocals
Merl Saunders - keyboards, vocals (Wondering Why)
Tony Saunders - bass
Martin Fierro - saxophone, flute
Bill Kreutzmann - drums
* With Alice Stuart - vocals

Thanks to jgmf for the correct band lineup and the proper title of track 01,
previously misidentified as either 'Bag's Groove' or 'Ptah, The El Daoud'.
More information on this show can be found at his Jerry Garcia's Middle Finger blog:
http://jgmf.blogspot.com/2011/12/ln-jg1974-06-04jgmsallsbd.html

"The Lions Share was a tiny club at 60 Red Hill in San Anselmo. It was mainly a musicians hangout...on the north side of Redhill Ave. (Miracle Mile), in between what is now Redhill Auto and what was Hatt's Custom Choppers."
http://jerrygarciasbrokendownpalaces.blogspot.com/2012/06/lions-share-60-red-hill-avenue-san.html

Notes
- One of two known versions of DTRF
- As the tape sounds, slight volume adjustment between reels
- DC Offset Corrected
- MBIT+for BRC

originally shared at www.shnflac.net

Show Checksums
jg1974-06-04.ffp
01 - Darben The Redd Foxx.flac:49f7224f0c7a72f28ae7ed4e0659c4e4
02 - Expressway (To Your Heart).flac:d22febac96ed1a3f322d87061eef464d
03 - I Second That Emotion.flac:83086c13faa76ba0a5584846c02c5a6d
04 - Wondering Why.flac:d1ce1b5041498f537a91fd3317ccd0f7
05 - Soul Roach.flac:7f9b371f55b37fc49ce3f2967e46d9ca
06 - All Blues.flac:b3570ccd57f8f7660daa9efa72a2c8a5
07 - New York City.flac:fe7e68ef2846e5b32c5aab2c80df0e73
08 - The Harder They Come.flac:5f9124a011530861e574e148298438c8
09 - The Night They Drove Old Dixie Down.flac:9a491dedc61caae8070bcef086ff558e
jg1974-06-04.xxxxxx.jgms.sbd.gems.flac16.shntool_len.txt
length expanded size cdr WAVE problems fmt ratio filename
17:53.55 189406604 B --- -- ---xx flac 0.5023 01 - Bag's Groove.flac
17:19.03 183286700 B --- -- ---xx flac 0.5051 02 - Expressway (To Your Heart).flac
14:20.08 151722860 B --- -- ---xx flac 0.5124 03 - I Second That Emotion.flac
18:15.62 193303868 B --- -- ---xx flac 0.4829 04 - Wonderin' Why.flac
8:30.73 90135740 B --- -- ---xx flac 0.5305 05 - Soul Roach.flac
25:45.00 272538044 B --- -- ---xx flac 0.5026 06 - All Blues.flac
7:54.28 83679500 B --- -- ---xx flac 0.5043 07 - New York City.flac
17:52.23 189154940 B --- -- ---xx flac 0.5185 08 - The Harder They Come.flac
6:35.05 69689804 B --- -- ---xx flac 0.4951 09 - The Night They Drove Old Dixie Down.flac
134:26.32 1422918060 B 0.5049 (9 files)

Comments
Add Comment
Other Sources (comments)
Garcia & Saunders: MSR >... (3)
Date User Comment