Browse Collections Artists Sources   Search Dates

Add Show    List Management    Help


Garcia 02/28/83
Keystone, Berkeley, CA
Comments Add Comment    Source Collectors    Add to Collection    Add to Want List    History
Source # 142103 Other Sources
Entered by Joe Jupille
Checksums jg1983-02-28.shntool_len.txt , jg1983-02-28.ffp
Disc Counts 0 / 0
Media Size Compressed: 285 MB (298844160 bytes)
Date Circulated
Date Added
05/30/2018
05/30/2018
Source Summary JGB; flac1648; s2; Sbd > Master Cassettes; Transfer - Nak BX-300 > Sony 75ES > DAT 
Source Information - Download Text | Download Zip
Jerry Garcia Band
Monday, February 28, 1983
Keystone,
Berkeley, CA

Sbd > Master Cassettes

Transfer - Nak BX-300 > Sony 75ES > DAT

Mastered by Jamie Waddell
Speed Correction by Jason Chastain
Tracked, Flac'd and Packed by John Wenzel

Both the archives of Stuccoholmes and ANON provided DATs of the same SBD pedigree,
which complete this source and many more to come from this era of JGB.

16bit 48kHz   May 2018

-set 2-
01 Knockin' On Heaven's Door >
02 Don't Let Go >
03 Dear Prudence>
04 Midnight Moonlight

Notes; Tape flip about one second into Midnight Moonlight.

originally shared at www.shnflac.net


Show Checksums
jg1983-02-28.shntool_len.txt
length expanded size cdr WAVE problems fmt ratio filename
13:00.813 149916204 B cxx -- ---xx flac 0.5005 01 - Knockin' On Heaven's Door.flac
17:07.800 197337644 B cxx -- ---xx flac 0.5278 02 - Don't Let Go.flac
11:47.693 135877164 B cxx -- ---xx flac 0.5175 03 - Dear Prudence.flac
8:15.653 95165484 B cxx -- ---xx flac 0.5188 04 - Midnight Moonlight.flac
50:11.960 578296496 B 0.5168 (4 files)
jg1983-02-28.ffp
01 - Knockin' On Heaven's Door.flac:ccf3fd050a7a073ae57baf48e52a9eb1
02 - Don't Let Go.flac:debcae9ec56e2cec839e9af13f332d06
03 - Dear Prudence.flac:b76b0c57a611f81f4434e4bcbe0f8c0a
04 - Midnight Moonlight.flac:68aa38c5762e4616aa3ad22e123004f6

Comments
Add Comment
Other Sources (comments)
Source: MAC(Nak 700s>Sony... (0)
Date User Comment