Browse Collections Artists Sources   Search Dates

Add Show    List Management    Help


Garcia 02/27/83
Keystone Palo Alto, Palo Alto, CA
Comments Add Comment    Source Collectors    Add to Collection    Add to Want List    History
Source # 142107 Other Sources
Entered by Joe Jupille
Checksums jg1983-02-27.shntool_len.txt , jg1983-02-27.ffp
Disc Counts 0 / 0
Media Size Compressed: 387 MB (405798912 bytes)
Date Circulated
Date Added
05/30/2018
05/30/2018
Source Summary JGB; flac1648; s1s2p; Sbd > Master Cassettes; Transfer - Nak BX-300 > Sony 75ES > DAT 
Source Information - Download Text | Download Zip
Jerry Garcia Band
Sunday, February 27, 1983
The Keystone,
Palo Alto, CA

Sbd > Master Cassettes

Transfer - Nak BX-300 > Sony 75ES > DAT

Mastered by Jamie Waddell
Speed Correction and Patching by Jason Chastain
Tracked, Flac'd and Packed by John Wenzel

Both the archives of Stuccoholmes and ANON provided DATs of the same SBD pedigree,
which complete this source and many more to come from this era of JGB.

16bit 48kHz   May 2018

-Set 1-
01 tuning
02 Run For The Roses
03 Love In The Afternoon
04 I Second That Emotion
05 Simple Twist Of Fate
06 Deal//

-set 2-
07 tuning >
08 Mission In The Rain
XX The Harder They Come (missing)
XX The Night They Drove Old Dixie Down (missing)
09 Midnight Moonlight

Notes:  Deal cuts after one minute.

originally shared at www.shnflac.net

Show Checksums
jg1983-02-27.shntool_len.txt
length expanded size cdr WAVE problems fmt ratio filename
2:20.133 26905644 B cxx -- ---xx flac 0.5069 01 - tuning.flac
6:52.987 79293484 B cxx -- ---xx flac 0.5699 02 - Run For The Roses.flac
11:59.947 138229804 B cxx -- ---xx flac 0.5338 03 - Love In The Afternoon.flac
11:28.720 132234284 B cxx -- ---xx flac 0.5444 04 - I Second That Emotion.flac
12:40.907 146094124 B cxx -- ---xx flac 0.4568 05 - Simple Twist Of Fate.flac
1:03.947 12277804 B cxx -- ---xx flac 0.5178 06 - Deal.flac
1:04.360 12357164 B cxx -- ---xx flac 0.4042 07 - tuning.flac
11:24.853 131491884 B cxx -- ---xx flac 0.5289 08 - Mission In The Rain.flac
8:44.027 100613164 B cxx -- ---xx flac 0.5348 09 - Midnight Moonlight.flac
67:39.880 779497356 B 0.5209 (9 files)
jg1983-02-27.ffp
01 - tuning.flac:4d8e1ee3ffcd10170cabd2038c73219c
02 - Run For The Roses.flac:6e88886b65dd0f5eb1e942f00cc3e6c3
03 - Love In The Afternoon.flac:71f9927046631342b892908ecbaf2c60
04 - I Second That Emotion.flac:15430fef6cf617990d0d67ee53fa514e
05 - Simple Twist Of Fate.flac:c84892cb82965af3706f8c40805a2178
06 - Deal.flac:8e9ae03c3c929a17432112e69f5fca9e
07 - tuning.flac:20ffdb44ff1a302b778008488ec99382
08 - Mission In The Rain.flac:3a3a72208938f4d150009b0db464aea7
09 - Midnight Moonlight.flac:e00bc3a5008773f0b315f5cdb6f8466a

Comments
Add Comment
Other Sources (comments)
Source:... (0) unknown low gen aud via by... (0)
Date User Comment