Browse Collections Artists Sources   Search Dates

Add Show    List Management    Help


Garcia 03/05/83
Civic Auditorium, Santa Cruz, CA
Comments Add Comment    Source Collectors    Add to Collection    Add to Want List    History
Source # 142117 Other Sources
Entered by
Checksums jg1983-11-12.ffp
Disc Counts 0 / 0
Media Size Compressed: 695 MB (728760320 bytes)
Uncompressed: 1.06 GB (1143427000 bytes)
Date Circulated
Date Added
05/31/2018
05/31/2018
Source Summary JGB; flac1648; Sbd > Master Cassettes; Transfer - Nak BX-300 > Sony 75ES > DAT 
Source Information - Download Text | Download Zip
Jerry Garcia Band
Saturday, March 5, 1983
Civic Auditorium,
Santa Cruz, CA

Sbd > Master Cassettes

Transfer - Nak BX-300 > Sony 75ES > DAT

Mastered by Jamie Waddell
Speed Correction by Jason Chastain
Tracked, Flac'd and Packed by John Wenzel

Both the archives of Stuccoholmes and ANON provided DATs of the same SBD pedigree,
which complete this source and many more to come from this era of JGB.

16bit 48kHz   May 2018

-Set 1-
01 //How Sweet It Is
02 Catfish John
03 //That's What Love Will Make You Do >
04 Valerie >
05 Run For The Roses

-set 2-
06 //Mission In The Rain
07 The Harder They Come
08 The Night They Drove Old Dixie Down
09 Dear Prudence >
10 Tangled Up In Blue

Notes: Tape flip in Tangled Up In Blue at 1:06

originally shared at www.shnflac.net

    length     expanded size    cdr  WAVE problems  fmt   ratio  filename
     7:16.720      83850284 B   cxx   --   ---xx   flac  0.6651  01 - How Sweet It Is.flac
     9:04.080     104463404 B   cxx   --   ---xx   flac  0.6391  02 - Catfish John.flac
    11:42.333     134848044 B   cxx   --   ---xx   flac  0.6349  03 - That's What Love Will Make You Do.flac
     8:18.547      95721004 B   cxx   --   ---xx   flac  0.6502  04 - Valerie.flac
     5:39.507      65185324 B   cxx   --   ---xx   flac  0.6475  05 - Run For The Roses.flac
    11:11.240     128878124 B   cxx   --   ---xx   flac  0.6390  06 - Mission In The Rain.flac
    13:12.240     152110124 B   cxx   --   ---xx   flac  0.6207  07 - The Harder They Come.flac
     8:57.333     103168044 B   cxx   --   ---xx   flac  0.5970  08 - The Night They Drove Old Dixie Down.flac
    12:43.587     146608684 B   cxx   --   ---xx   flac  0.6247  09 - Dear Prudence.flac
    11:09.760     128593964 B   cxx   --   ---xx   flac  0.6768  10 - Tangled Up In Blue.flac
    99:15.347    1143427000 B                            0.6381  (10 files)

Show Checksums
jg1983-11-12.ffp
01 - How Sweet It Is.flac:2a1c41b7eedda72e3388b0ee04c2a59e
02 - Catfish John.flac:7e0e36b0187695c2d9b0b35662233744
03 - That's What Love Will Make You Do.flac:02f3f192f75db4cc28a1193784cb83a2
04 - Valerie.flac:9f3667bbaf8312138ed1d72c9953a71e
05 - Run For The Roses.flac:9e7c879503744aaab7d2726379bcbfc4
06 - Mission In The Rain.flac:31ee7e575c04c55350b800b18e992b2b
07 - The Harder They Come.flac:685f350367e6e3231332b4e1723fd222
08 - The Night They Drove Old Dixie Down.flac:c1286e2b37dbcfe6b4a039f0f406027b
09 - Dear Prudence.flac:0c15edd8514a5f207e298f6c20cb40ce
10 - Tangled Up In Blue.flac:b7481491b93641ff00987d2817f05b31

Comments
Add Comment
Other Sources (comments)
Jerry Garcia Band: MSC >... (0) Jerry Garcia Band: MSC >... (1) JGB: MSC > DAT; Transfer:... (0)
Date User Comment