Browse Collections Artists Sources   Search Dates

Add Show    List Management    Help


Garcia 11/12/83
Keystone Palo Alto, Palo Alto, CA
Comments Add Comment    Source Collectors    Add to Collection    Add to Want List    History
Source # 142118 Other Sources
Entered by
Checksums jg1983-11-12.ffp
Disc Counts 0 / 0
Media Size Compressed: 467 MB (489684992 bytes)
Uncompressed: 928.3 MB (973391756 bytes)
Date Circulated
Date Added
05/31/2018
05/31/2018
Source Summary JGB; flac1648; Sbd > Master Cassettes; Transfer - Nak BX-300 > Sony 75ES > DAT 
Source Information - Download Text | Download Zip
Jerry Garcia Band
Saturday, November 12, 1983
The Keystone,
Palo Alto, CA

Sbd > Master Cassettes

Transfer - Nak BX-300 > Sony 75ES > DAT

Mastered by Jamie Waddell
Speed Correction and Patching by Jason Chastain
Tracked, Flac'd and Packed by John Wenzel

Both the archives of Stuccoholmes and ANON provided DATs of the same SBD pedigree,
which complete this source and many more to come from this era of JGB.

16bit 48kHz   May 2018

-Set 1-
01 //How Sweet it Is
02 Catfish John
03 Simple Twist of Fate
04 Cats Under the Stars
05 Run for the Roses 38:08

-set 2-
06 Rhapsody in Red
07 Knockin' on Heaven's Door
08 Don't Let Go
09 Deal

Originally shared at www.shnflac.net



    length     expanded size    cdr  WAVE problems  fmt   ratio  filename
     4:18.227      49579564 B   cxx   --   ---xx   flac  0.4818  01 - How Sweet It Is.flac
    10:05.453     116247084 B   cxx   --   ---xx   flac  0.4969  02 - Catfish John.flac
    11:08.733     128396844 B   cxx   --   ---xx   flac  0.4685  03 - Simple Twist Of Fate.flac
     7:13.013      83138604 B   cxx   --   ---xx   flac  0.5109  04 - Cats Under The Stars.flac
     5:02.133      58009644 B   cxx   --   ---xx   flac  0.5069  05 - Run For The Roses.flac
     9:27.013     108866604 B   cxx   --   ---xx   flac  0.5113  06 - Rhapsody In Red.flac
    13:16.720     152970284 B   cxx   --   ---xx   flac  0.4916  07 - Knockin' On Heaven's Door.flac
    15:41.400     180748844 B   cxx   --   ---xx   flac  0.5182  08 - Don't Let Go.flac
     8:17.053      95434284 B   cxx   --   ---xx   flac  0.5496  09 - Deal.flac
    84:29.747     973391756 B                            0.5041  (9 files)

Show Checksums
jg1983-11-12.ffp
01 - How Sweet It Is.flac:88a86fe12ec0d1651103c36202385cc4
02 - Catfish John.flac:0674b77eb8ceba45be9de50f0a379320
03 - Simple Twist Of Fate.flac:e1e057940266948b780b8ab8c35a927a
04 - Cats Under The Stars.flac:f6e003ad40f9b6cd59f36eab4cfc9add
05 - Run For The Roses.flac:af3098c519b33056b53c65af607f2521
06 - Rhapsody In Red.flac:f33c5ba3363e5f9173ac3bec22372973
07 - Knockin' On Heaven's Door.flac:89bba6e6339bb5707613fd0e67aed32e
08 - Don't Let Go.flac:b14d7346bc28fdb2ac4a29ad73ee2f69
09 - Deal.flac:ba76c35587c9054f165080f63718dabe

Comments
Add Comment
Other Sources (comments)
Source: MAC(Nak 700s>Sony... (0) Source:... (0) Jerry Garcia Band: SBD > CM... (0) JGB, flac1644; Source:... (0) JGB, flac1644; Matrix of... (0) JGB, flac1644; John... (0)
Date User Comment
06/03/2018 mgoldey patch in Rhasphody in Red
via Corley Nak700 aud courtesy of Jason