Browse Collections Artists Sources   Search Dates

Add Show    List Management    Help


Garcia 10/10/68
The Matrix, San Francisco, CA
Comments Add Comment    Source Collectors    Add to Collection    Add to Want List    History
Source # 142425 Other Sources
Entered by Joe Jupille
Checksums Garcia1968-10-10.md5 , Garcia1968-10-10.ffp
Disc Counts 0 / 0
Media Size
Uncompressed: 1.79 GB (1926372324 bytes)
Date Circulated
Date Added
06/29/2018
06/29/2018
Source Summary Hartbeats; flac1648; SBD > Reel Master > Reel 1st gen > Reel 2nd gen > dat (48k) - Provided by Tim Dalton; Transfer: Dat > Sony PCM-R500 > Tascam DA-3000 > wav 16/48 - Transferred by Charlie Miller; Lineage: wav 16/48> iZotope RX6 Advanced > iZotope Ozone 5 Advanced > CD Wave > Flac1648, edited and mastered SIRMick 
Source Information - Download Text | Download Zip
Mickey and the Heartbeats
The Matrix
San Francisco, CA
10/10/1968


Source: SBD > Reel Master > Reel 1st gen > Reel 2nd gen > dat (48k) - Provided by Tim Dalton
Transfer: Dat > Sony PCM-R500 > Tascam DA-3000 > wav 16/48 - Transferred by Charlie Miller
Lineage: wav 16/48> iZotope RX6 Advanced > iZotope Ozone 5 Advanced > CD Wave > Flac1648



01   Jam
02   It's A Sin
03   Next Time You See Me Jam
04   The Rub Jam
05   Look On Yonder Wall *
06   New Potato Caboose  Jam
07   Turn On Your Love Light Jam >
08   Death Don't Have No Mercy
09   Dark Star Jam  >
10   The Eleven Jam >
11    The Seven



Comments:

- With Elvin Bishop*
- I decided to amalgamate Love Light > Drums > Jam into one track because, although they take a few side journeys,  to me it's essentially all one tune.

Notes:

- Patch in "Love Light" of about 9 seconds. Source used shnid 4513 - Thank you Charlie and Chris Ladner.


Thanks to Joe B. Jones for help with pitch correction.

Thanks To Charlie Miller for doing the transfer.

Thanks To Tim Dalton for providing this source.



edited and mastered
SIRMick
June 2018


shntool ouput:

    length     expanded size    cdr  WAVE problems  fmt   ratio  filename
    29:06.853     335395884 B   cxx   --   ---xx   flac  0.4220  hartbeats1968-10-10t01.flac
     9:08.227     105259564 B   cxx   --   ---xx   flac  0.3643  hartbeats1968-10-10t02.flac
     8:05.293      93176364 B   cxx   --   ---xx   flac  0.4411  hartbeats1968-10-10t03.flac
     6:42.653      77309484 B   cxx   --   ---xx   flac  0.4212  hartbeats1968-10-10t04.flac
     4:58.987      57405484 B   cxx   --   ---xx   flac  0.4122  hartbeats1968-10-10t05.flac
    22:43.493     261790764 B   cxx   --   ---xx   flac  0.4069  hartbeats1968-10-10t06.flac
    45:23.280     522869804 B   cxx   --   ---xx   flac  0.4150  hartbeats1968-10-10t07.flac
    11:13.987     129405484 B   cxx   --   ---xx   flac  0.3910  hartbeats1968-10-10t08.flac
    13:31.653     155837484 B   cxx   --   ---xx   flac  0.4361  hartbeats1968-10-10t09.flac
     6:07.547      70569004 B   cxx   --   ---xx   flac  0.4983  hartbeats1968-10-10t10.flac
    10:11.213     117353004 B   cxx   --   ---xx   flac  0.4838  hartbeats1968-10-10t11.flac
   167:13.187    1926372324 B                            0.4211  (11 files)

Show Checksums
Garcia1968-10-10.md5
bb19a38eaf12c9f73654b7af2bf16988 *hartbeats1968-10-10t01.flac
f777dd14aad0c3fb03e49928871e2224 *hartbeats1968-10-10t02.flac
3d718a270efe497350c55bc5d142cd01 *hartbeats1968-10-10t03.flac
af467b0684f006194b0e3cd74ad6cc95 *hartbeats1968-10-10t04.flac
83e3738bbb723eecd4f2a816710dfbbf *hartbeats1968-10-10t05.flac
c99abf26ee849b887383977b690cb6df *hartbeats1968-10-10t06.flac
8120d63788be7c01f14ec108d528c8d3 *hartbeats1968-10-10t07.flac
74b9a3b1697b128b75ec343df62437d2 *hartbeats1968-10-10t08.flac
a2caf8b2baf8a4a592513835c96e77e5 *hartbeats1968-10-10t09.flac
d413da6bbc49fd4a8eb5f135322f5451 *hartbeats1968-10-10t10.flac
df57eac19ca9e6ae823ab86a88180bcb *hartbeats1968-10-10t11.flac
Garcia1968-10-10.ffp
hartbeats1968-10-10t01.flac:927b6d007ffc1ac94f6fd72fc5aaba9c
hartbeats1968-10-10t02.flac:e1697f5de60bfc36f4e50714be2c0159
hartbeats1968-10-10t03.flac:143451b8094eff7bad962a41bd6a1158
hartbeats1968-10-10t04.flac:8b831acdaac2049a7c941184bd88ce54
hartbeats1968-10-10t05.flac:f5f049ff934a5447fbe41462d2895e07
hartbeats1968-10-10t06.flac:83b467ec4b67e9ebbccedf9cc5979f13
hartbeats1968-10-10t07.flac:f1cb386bc5eec57a375289591205aa21
hartbeats1968-10-10t08.flac:cf2a10a5f089562e80abec4e47673d94
hartbeats1968-10-10t09.flac:0f6c8760eee03df532866baa338af676
hartbeats1968-10-10t10.flac:431148d01fc7c3d861c1c1f580bfab88
hartbeats1968-10-10t11.flac:b794aeb140bcc04c2aed18557d9bc690

Comments
Add Comment
Other Sources (comments)
SBD> Rm> Reel> CD (May Be... (1) Hartbeats; note date... (3) Hartbeats; note date... (0)
Date User Comment