Browse Collections Artists Sources   Search Dates

Add Show    List Management    Help


Grateful Dead 10/02/88
Shoreline Amphitheatre, Mountain View, CA
Comments Add Comment    Source Collectors    Add to Collection    Add to Want List    History
Source # 142490 Other Sources
Entered by Matt Vernon
Checksums ffp , flac-md5
Disc Counts 0 / 0
Media Size Compressed: 528.95 MB (554643456 bytes)
Date Circulated
Date Added
07/02/2018
07/02/2018
Source Summary flac16; Set 2 Recording Info: SBD > Beta HiFi Master (Sony Betamax/TDK HS); Transfer Info: Beta HiFi Master (Sony SL-HF66) > Tascam DA-3000 (DSF 1-bit/5.6MHz) > dBpoweramp > Samplitude Pro X3 Suite > FLAC/24; All Transfers and Mastering By Charlie Miller 
  Archive
Source Information - Download Text | Download Zip
Grateful Dead - October 2, 1988
Shoreline Amphitheatre - Mountain View, CA

Recording Info:
SBD > Beta HiFi Master (Sony Betamax/TDK HS)

Transfer Info:
Beta HiFi Master (Sony SL-HF66) > Tascam DA-3000 (DSF 1-bit/5.6MHz) >
dBpoweramp > Samplitude Pro X3 Suite > FLAC/24
(1 DVD FLAC)

All Transfers and Mastering By Charlie Miller
[email protected]
June 25, 2018

Notes:
-- This is a Healy Mix SBD with no ambient mics
-- I am currently missing the Set 1 from this source
-- Phil does a really nice bass solo at the start of Space
-- This file set is 16 bit at 44.1

Set 2:
01 - Tuning >
02 - Crazy Fingers >
03 - Samson And Delilah
04 - Jam >
05 - Estimated Prophet >
06 - Eyes Of The World >
07 - Drums >
08 - Space >
09 - Gimme Some Lovin' >
10 - Stella Blue >
11 - Throwing Stones >
12 - Not Fade Away

Encore:
13 - Encore Break
14 - Black Muddy River


SHNTOOL OUTPUT:
    length     expanded size    cdr  WAVE problems  fmt   ratio  filename
     1:39.47       17574188 B   ---   --   ---xx   flac  0.3993  01 Tuning.flac
     7:37.51       80734796 B   ---   --   ---xx   flac  0.5115  02 Crazy Fingers.flac
     8:16.03       87501500 B   ---   --   ---xx   flac  0.5349  03 Samson And Delilah.flac
     4:33.68       48317180 B   ---   --   ---xx   flac  0.4549  04 Jam.flac
    11:13.21      118766636 B   ---   --   ---xx   flac  0.5430  05 Estimated Prophet.flac
     8:02.33       85102460 B   ---   --   ---xx   flac  0.5632  06 Eyes Of The World.flac
    10:07.46      107183036 B   ---   --   ---xx   flac  0.4422  07 Drums.flac
    13:41.58      144960860 B   ---   --   ---xx   flac  0.4036  08 Space.flac
     4:37.28       48928700 B   ---   --   ---xx   flac  0.5610  09 Gimme Some Lovin'.flac
     8:17.64       87821372 B   ---   --   ---xx   flac  0.5095  10 Stella Blue.flac
    10:32.64      111635372 B   ---   --   ---xx   flac  0.5469  11 Throwing Stones.flac
     6:43.31       71162156 B   ---   --   ---xx   flac  0.5206  12 Not Fade Away.flac
     4:26.74       47096492 B   ---   --   ---xx   flac  0.3073  13 Encore Break.flac
     6:24.07       67754108 B   ---   --   ---xx   flac  0.5082  14 Black Muddy River.flac
   106:14.70     1124538856 B                            0.4932  (14 files)



Show Checksums
ffp
01 Tuning.flac:5f947efe122e9c4103c49af0a137d301
02 Crazy Fingers.flac:0b324688b3150589facf4dcdd6497e02
03 Samson And Delilah.flac:cd69cff92fdda68d460deaef3f8d5f76
04 Jam.flac:7664b164f8447e72f6549fafa08106e0
05 Estimated Prophet.flac:d8bd3acbb3b3680eb90c3f69fb39d2d6
06 Eyes Of The World.flac:8a97e0f439f09027e6dd71f3115b42a4
07 Drums.flac:b3ec1ded479748aec6288a1161f622d2
08 Space.flac:1ca7aff967fb322ee25edfaeb484c63d
09 Gimme Some Lovin'.flac:e1bca2a58b27cc706f9d2d000404f662
10 Stella Blue.flac:b0455f25abea1dac221ecd8dbc90b686
11 Throwing Stones.flac:8c9b07b0564e145b42dc4bc1bdbe0121
12 Not Fade Away.flac:225b3a75ff1c70884ccec5917cdde9ed
13 Encore Break.flac:417bfadb34a9c0265cde818723419bfd
14 Black Muddy River.flac:32f8bed221d177cd172201ba90c5534a
flac-md5
05b7cfde59a28319378d961598b5f94e *01 Tuning.flac
df0bfae2cc85b5f7fedf87e4197fbf10 *02 Crazy Fingers.flac
6a011e8c0deb35247964ca6fcf6902e9 *03 Samson And Delilah.flac
757bd46781b1aa8ad44edfc2d95f4fda *04 Jam.flac
64933294e1053b7cc5cf755d60033257 *05 Estimated Prophet.flac
20bdbac8c8564dc2327852305d81197c *06 Eyes Of The World.flac
42da9efe119deba1a91f99619b70a897 *07 Drums.flac
ff6559f7976d90be7cb3f81d619ab1e8 *08 Space.flac
5b7d12f6afc439140aeb3d1c1540c15d *09 Gimme Some Lovin'.flac
677f9890b33f485b312bef5722a17d1b *10 Stella Blue.flac
45fe78f596f24ad0cd4314a6285dd3b3 *11 Throwing Stones.flac
177dcd055bcd697d6d32cfdadb72f03a *12 Not Fade Away.flac
d03301ae05b9941ffadbe806ccfda0aa *13 Encore Break.flac
0112f2a9a1bf6aa1c1faf62d367131fa *14 Black Muddy River.flac

Comments
Add Comment
Other Sources (comments)
SBD> Cass> DAT> CDR>... (1) flac16; Seamless fix... (1) flac16; Beyer M-88's... (0) flac24; Set 2... (0)
Date User Comment