Browse Collections Artists Sources   Search Dates

Add Show    List Management    Help


Garcia 05/23/76
Santa Monica Civic Auditorium, Santa Monica, CA
Comments Add Comment    Source Collectors    Add to Collection    Add to Want List    History
Source # 142564 Other Sources
Entered by Joe Jupille
Checksums jgb1976-05-23.md5 , jgb1976-05-23.ffp
Disc Counts 0 / 0
Media Size Compressed: 1.8 GB (1932574720 bytes)
Uncompressed: 2.65 GB (2840438066 bytes)
Date Circulated
Date Added
07/07/2018
07/07/2018
Source Summary JGB, flac2448; Source: Lo-Fi AUD of unknown lineage > ? > Cassettes rescued from ebay. Transfer: Maxell XLII-90's > Nakamichi CR-5A > Edirol FA-66 > Wavelab 2448 > CD-Wave (24bit-output) > TLH > FLAC 2448 tagged. Transferred by Andrew F. 07/2018 
Source Information - Download Text | Download Zip
JERRY GARCIA BAND
Civic Auditorium
Santa Monica CA
05-23-1976

24bit/48kHz file-set

s1t01 Sugaree
s1t02 Catfish John
s1t03 That's What Love Will Make You Do
s1t04 Who Was John?
s1t05 After Midnight
s1t06 The Night They Drove Old Dixie Down
s1t07 The Way You Do the Things You Do
s1t08 Friend of the Devil
s1t09 My Sisters & Brothers
s1t10 Lonesome and a Long Way from Home

s2t01 Mission in the Rain
s2t02 They Love Each Other
s2t03 Tore Up Over You
s2t04 Stop that Train
s2t05 Mystery Train
s2t06 Don't Let Go

Source: Lo-Fi AUD of unknown lineage > ? > Cassettes rescued from ebay.

Transfer: Maxell XLII-90's > Nakamichi CR-5A > Edirol FA-66 > Wavelab
2448 > CD-Wave (24bit-output) > TLH > FLAC 2448 tagged. Transferred by
Andrew F. 07/2018

Note: Some of the songs start-up abruptly as the deck is switched on.
Splices: Who Was John? 8:16, and After Midnight 9:31 & 9:40. It's not
clear if Don't Let Go was the last song of the show. Ticketmaster made
"Gary Garcia Band" tickets for this show. Thanks to JGMF for supplying
the "stultifying turtles" show review from the L.A. Free Times. Trivia
fun: This was the last JGB show before the GD's hiatus came to an end.

    length     expanded size    cdr  WAVE problems  fmt   ratio  filename
    10:41.960     184884524 B   cxx   --   ---xx   flac  0.6748  jgb1976-05-23s1t01.flac
     9:41.787     167554604 B   cxx   --   ---xx   flac  0.6706  jgb1976-05-23s1t02.flac
    11:47.600     203788844 B   cxx   --   ---xx   flac  0.6737  jgb1976-05-23s1t03.flac
    11:04.438     191358236 B   cxx   --   ---xx   flac  0.6777  jgb1976-05-23s1t04.flac
    10:06.467     174662444 B   cxx   --   ---xx   flac  0.6896  jgb1976-05-23s1t05.flac
     9:41.973     167608364 B   cxx   --   ---xx   flac  0.6792  jgb1976-05-23s1t06.flac
     7:14.200     125049644 B   cxx   --   ---xx   flac  0.6873  jgb1976-05-23s1t07.flac
     7:40.867     132729644 B   cxx   --   ---xx   flac  0.6786  jgb1976-05-23s1t08.flac
     6:46.053     116943314 B   cxx   --   ---xx   flac  0.6750  jgb1976-05-23s1t09.flac
    17:12.333     297312044 B   cxx   --   ---xx   flac  0.6856  jgb1976-05-23s1t10.flac
     8:10.120     141154604 B   cxx   --   ---xx   flac  0.6794  jgb1976-05-23s2t01.flac
     7:07.787     123202604 B   cxx   --   ---xx   flac  0.6766  jgb1976-05-23s2t02.flac
     8:27.747     146231084 B   cxx   --   ---xx   flac  0.6875  jgb1976-05-23s2t03.flac
     6:11.055     106863986 B   cxx   --   ---xx   flac  0.6801  jgb1976-05-23s2t04.flac
     9:15.720     160047404 B   cxx   --   ---xx   flac  0.6944  jgb1976-05-23s2t05.flac
    23:12.523     401046722 B   cxx   --   ---xx   flac  0.6770  jgb1976-05-23s2t06.flac
   164:22.630    2840438066 B                            0.6803  (16 files)

No errors occured.


Show Checksums
jgb1976-05-23.md5
29e31c3af88dd7281be25aa01d483174 *jgb1976-05-23s1t01.flac
52abdca7168deda6c7a149b46d6e07b3 *jgb1976-05-23s1t02.flac
607d9521bb5fcee665c6ac5b0cc6b3a8 *jgb1976-05-23s1t03.flac
972ebcd670107951d534a7cfe57fabc7 *jgb1976-05-23s1t04.flac
486a164f4951e5bffa410da076184592 *jgb1976-05-23s1t05.flac
c3e0f78b263920913c38ca286dc6a68a *jgb1976-05-23s1t06.flac
e4d5ffab4d57068d0e36ad9ab45d5373 *jgb1976-05-23s1t07.flac
1d65d182239e57b45f1787c80587cd60 *jgb1976-05-23s1t08.flac
7b09ef60481bb025a3273bc8eaff8d9b *jgb1976-05-23s1t09.flac
49a225d97a5c6055a360ae3b850f7ffb *jgb1976-05-23s1t10.flac
3c9c0e4a8ccf4c86642ff41a18891e01 *jgb1976-05-23s2t01.flac
85e6ee55f4d8a0f1996eb4449d78ea4e *jgb1976-05-23s2t02.flac
cddd419c4990f8ee6740af9e3090eba7 *jgb1976-05-23s2t03.flac
a64ac4340580166f186d8dce79cb59c0 *jgb1976-05-23s2t04.flac
3bc28a93e40701c692852e57ae4935f0 *jgb1976-05-23s2t05.flac
de50d021fd00f29cdd2de7103e7f0586 *jgb1976-05-23s2t06.flac
jgb1976-05-23.ffp
jgb1976-05-23s1t01.flac:189e1a19dac07ef2d87da8519aecad18
jgb1976-05-23s1t02.flac:009342309b71107492b7c50488c69ba0
jgb1976-05-23s1t03.flac:8c2ae6f95741b4fd3d9024aa03118000
jgb1976-05-23s1t04.flac:6cb16fe7184bdb2e636e6a3eaa59c362
jgb1976-05-23s1t05.flac:3ec0192d7143545a61c4e16ee47ad80b
jgb1976-05-23s1t06.flac:00b6ae5422ab9b22635251e011aac8f2
jgb1976-05-23s1t07.flac:625d814de593d4c8b20c1678f232c01c
jgb1976-05-23s1t08.flac:b236e1b6453d4ca692161bead542679c
jgb1976-05-23s1t09.flac:8e5108ca020ae5a844db669fc73281b3
jgb1976-05-23s1t10.flac:4d23131841f54ac53e636a6c0b08873f
jgb1976-05-23s2t01.flac:210ea5960d2815a249bdfa3e3328b712
jgb1976-05-23s2t02.flac:d33ea5846eac4072addd931413e683b5
jgb1976-05-23s2t03.flac:1df395dbb4d2a1e2c4548f3f409a75fc
jgb1976-05-23s2t04.flac:acf994e1eb9c9e90ba16431a62483d01
jgb1976-05-23s2t05.flac:2aae68fb6149425e9e510116860c1b3f
jgb1976-05-23s2t06.flac:f3eb8212047f78ae3903f977602bbbc1

Comments
Add Comment
Other Sources (comments)
JGB, flac1644; Source:... (0)
Date User Comment