Browse Collections Artists Sources   Search Dates

Add Show    List Management    Help


Garcia 05/23/76
Santa Monica Civic Auditorium, Santa Monica, CA
Comments Add Comment    Source Collectors    Add to Collection    Add to Want List    History
Source # 142565 Other Sources
Entered by Joe Jupille
Checksums jgb1976-05-23.ffp , jgb1976-05-23.md5
Disc Counts 0 / 0
Media Size Compressed: 870.59 MB (912883712 bytes)
Uncompressed: 1.62 GB (1739770400 bytes)
Date Circulated
Date Added
07/07/2018
07/07/2018
Source Summary JGB, flac1644; Source: Lo-Fi AUD of unknown lineage > ? > Cassettes rescued from ebay. Transfer: Maxell XLII-90's > Nakamichi CR-5A > Edirol FA-66 > Wavelab 2448 > CD-Wave (24bit-output) > R8Brain SRC > TLH > FLAC 1644 tagged. Transferred by Andrew F. 07/2018 
Source Information - Download Text | Download Zip
JERRY GARCIA BAND
Civic Auditorium
Santa Monica CA
05-23-1976

16bit/44.1kHz file-set

s1t01 Sugaree
s1t02 Catfish John
s1t03 That's What Love Will Make You Do
s1t04 Who Was John?
s1t05 After Midnight
s1t06 The Night They Drove Old Dixie Down
s1t07 The Way You Do the Things You Do
s1t08 Friend of the Devil
s1t09 My Sisters & Brothers
s1t10 Lonesome and a Long Way from Home

s2t01 Mission in the Rain
s2t02 They Love Each Other
s2t03 Tore Up Over You
s2t04 Stop that Train
s2t05 Mystery Train
s2t06 Don't Let Go

Source: Lo-Fi AUD of unknown lineage > ? > Cassettes rescued from ebay.

Transfer: Maxell XLII-90's > Nakamichi CR-5A > Edirol FA-66 > Wavelab
2448 > CD-Wave (24bit-output) > R8Brain SRC > TLH > FLAC 1644 tagged.
Transferred by Andrew F. 07/2018

Note: Some of the songs start-up abruptly as the deck is switched on.
Splices: Who Was John? 8:16, and After Midnight 9:31 & 9:40. It's not
clear if Don't Let Go was the last song of the show. Ticketmaster made
"Gary Garcia Band" tickets for this show. Thanks to JGMF for supplying
the "stultifying turtles" show review from the L.A. Free Times. Trivia
fun: This was the last JGB show before the GD's hiatus came to an end.

    length     expanded size    cdr  WAVE problems  fmt   ratio  filename
    10:41.72      113241788 B   ---   --   ---xx   flac  0.5162  jgb1976-05-23s1t01.flac
     9:41.59      102627212 B   ---   --   ---xx   flac  0.5095  jgb1976-05-23s1t02.flac
    11:47.45      124820684 B   ---   --   ---xx   flac  0.5145  jgb1976-05-23s1t03.flac
    11:04.32      117204908 B   ---   --   ---xx   flac  0.5207  jgb1976-05-23s1t04.flac
    10:06.35      106980764 B   ---   --   ---xx   flac  0.5396  jgb1976-05-23s1t05.flac
     9:41.73      102660140 B   ---   --   ---xx   flac  0.5221  jgb1976-05-23s1t06.flac
     7:14.15       76592924 B   ---   --   ---xx   flac  0.5354  jgb1976-05-23s1t07.flac
     7:40.65       81296924 B   ---   --   ---xx   flac  0.5213  jgb1976-05-23s1t08.flac
     6:46.04       71627852 B   ---   --   ---xx   flac  0.5163  jgb1976-05-23s1t09.flac
    17:12.25      182103644 B   ---   --   ---xx   flac  0.5324  jgb1976-05-23s1t10.flac
     8:10.09       86457212 B   ---   --   ---xx   flac  0.5240  jgb1976-05-23s2t01.flac
     7:07.59       75461612 B   ---   --   ---xx   flac  0.5191  jgb1976-05-23s2t02.flac
     8:27.56       89566556 B   ---   --   ---xx   flac  0.5359  jgb1976-05-23s2t03.flac
     6:11.04       65453852 B   ---   --   ---xx   flac  0.5239  jgb1976-05-23s2t04.flac
     9:15.54       98029052 B   ---   --   ---xx   flac  0.5469  jgb1976-05-23s2t05.flac
    23:12.41      245645276 B   ---   --   ---xx   flac  0.5193  jgb1976-05-23s2t06.flac
   164:22.48     1739770400 B                            0.5245  (16 files)

No errors occured.


Show Checksums
jgb1976-05-23.ffp
jgb1976-05-23s1t01.flac:6a7fda3e2ff45f1144c64c605dec7f93
jgb1976-05-23s1t02.flac:abaf8adbfabc46b887c74f5d5c936e76
jgb1976-05-23s1t03.flac:998521d527b94f16d3cd64b8797a4315
jgb1976-05-23s1t04.flac:efff2d39066ed9ca2b417a5125489ab9
jgb1976-05-23s1t05.flac:d627124744db62047733f1d0a2e4124f
jgb1976-05-23s1t06.flac:95d8f4d5cbea6dde7971265327a59c66
jgb1976-05-23s1t07.flac:b1573ed4f3997c1ec1ef0b197251c7d3
jgb1976-05-23s1t08.flac:05022cfc9550b389d62a6c7f765dc42a
jgb1976-05-23s1t09.flac:abd7d0f3bb2515ddce556faaff00ce9f
jgb1976-05-23s1t10.flac:e65b5ca178bc926a21ddb7c87404a6a2
jgb1976-05-23s2t01.flac:ea376301fb07475c05bd9a8dad9b5fac
jgb1976-05-23s2t02.flac:c5e0f2592cd1d392a1a51db0dd03b515
jgb1976-05-23s2t03.flac:09834f002c463c38c5a07ecdf556448a
jgb1976-05-23s2t04.flac:f3f84e6b2488362b9627bd8ec3b3f442
jgb1976-05-23s2t05.flac:ec0c690b2fbebbb9d85e45550c89f8ac
jgb1976-05-23s2t06.flac:32128600a33e2d49caa08d69a6481dbc
jgb1976-05-23.md5
241f45ae22c8de72cf3f9418a61eb93f *jgb1976-05-23s1t01.flac
f4d0a3623c84b120875d0978b8473c24 *jgb1976-05-23s1t02.flac
8ba3262fa19c45665b1993675c32189c *jgb1976-05-23s1t03.flac
2a50d225f775300e6d3fa154baa05351 *jgb1976-05-23s1t04.flac
e98795ee2bccac941bdd7cd86408ddc5 *jgb1976-05-23s1t05.flac
44158903576876969997f2a6406a2f80 *jgb1976-05-23s1t06.flac
83164bcd17a4bd6c4b89d6c6864b9009 *jgb1976-05-23s1t07.flac
27b77c07aba733fe1ae2d64f76ed3847 *jgb1976-05-23s1t08.flac
1c6e00f3a0b74b067d7a7f978035525a *jgb1976-05-23s1t09.flac
bf829caf6cb71b3d9b9e45052dd42729 *jgb1976-05-23s1t10.flac
81b9baa9b71fb0b049b2aacbb982fadb *jgb1976-05-23s2t01.flac
337ea16f17c7e9525f675f673967f0ac *jgb1976-05-23s2t02.flac
fb28c3232854cad061ec55006916efe0 *jgb1976-05-23s2t03.flac
926ebdece2c4a3b7053fed67f78d9115 *jgb1976-05-23s2t04.flac
f0dce464555e690ceb386c532b5316e4 *jgb1976-05-23s2t05.flac
e1676cc03fd290052e3305a6ad484c44 *jgb1976-05-23s2t06.flac

Comments
Add Comment
Other Sources (comments)
JGB, flac2448; Source:... (0)
Date User Comment