Browse Collections Artists Sources   Search Dates

Add Show    List Management    Help


Garcia 03/12/83
Beverly Theatre, Beverly Hills, CA
Comments Add Comment    Source Collectors    Add to Collection    Add to Want List    History
Source # 142723 Other Sources
Entered by Joe Jupille
Checksums jgb1983-03-12.ffp , jgb1983-03-12.md5
Disc Counts 0 / 0
Media Size Compressed: 1.11 GB (1187602432 bytes)
Uncompressed: 1.5 GB (1611639738 bytes)
Date Circulated
Date Added
07/22/2018
07/22/2018
Source Summary JGB, flac2448; Late Show; Source: Lo-gen AUD (unknown equipment) > Cassettes rescued from ebay. Transfer: Maxell XLII-90's > Nakamichi CR-5A > Edirol FA-66 > Wavelab 2448 > CD-Wave (24bit-output) > TLH > FLAC 2448 tagged. Transferred by Andrew F. 07/2018 
Source Information - Download Text | Download Zip
JERRY GARCIA BAND
Beverly Theatre
Beverly Hills CA
03-12-1983
Late Show

24bit/48kHz file-set

s1t01 The Harder They Come
s1t02 Mission in the Rain
s1t03 Valerie
s1t04 Catfish John

s2t01 Sugaree
s2t02 The Night They Drove Old Dixie Down
s2t03 Dear Prudence
s2t04 Tangled Up in Blue
s2t05 Encore: Midnight Moonlight

Source: Lo-gen AUD (unknown equipment) > Cassettes rescued from ebay.

Transfer: Maxell XLII-90's > Nakamichi CR-5A > Edirol FA-66 > Wavelab
2448 > CD-Wave (24bit-output) > TLH > FLAC 2448 tagged. Transferred by
Andrew F. 07/2018

Note: Does not match the recording found on ID-17147 and provides the
previously missing encore. Levels start off low in Harder They Come.

    length     expanded size    cdr  WAVE problems  fmt   ratio  filename
    12:02.773     208158764 B   cxx   --   ---xx   flac  0.7388  jgb1983-03-12s1t01.flac
     9:27.973     163576364 B   cxx   --   ---xx   flac  0.7321  jgb1983-03-12s1t02.flac
     7:35.720     131247404 B   cxx   --   ---xx   flac  0.7342  jgb1983-03-12s1t03.flac
    10:33.606     182478584 B   cxx   --   ---xx   flac  0.7334  jgb1983-03-12s1t04.flac
    12:32.613     216752684 B   cxx   --   ---xx   flac  0.7368  jgb1983-03-12s2t01.flac
     9:06.053     157263404 B   cxx   --   ---xx   flac  0.7246  jgb1983-03-12s2t02.flac
    13:06.027     226375724 B   cxx   --   ---xx   flac  0.7313  jgb1983-03-12s2t03.flac
    10:15.987     177404204 B   cxx   --   ---xx   flac  0.7506  jgb1983-03-12s2t04.flac
     8:35.217     148382606 B   cxx   --   ---xx   flac  0.7495  jgb1983-03-12s2t05.flac
    93:15.970    1611639738 B                            0.7367  (9 files)

No errors occured.


Show Checksums
jgb1983-03-12.ffp
jgb1983-03-12s1t01.flac:41ecbf03a4bc17d7553b5983816d7a90
jgb1983-03-12s1t02.flac:abf5d126f16ca8fc7cbfda005f35bc22
jgb1983-03-12s1t03.flac:ec92f1650d8e1ba96aa4c73cc8a4a6b9
jgb1983-03-12s1t04.flac:2c3b9cde49adec6ba13d47df6304b83f
jgb1983-03-12s2t01.flac:035ed6f2086b4f4cb01c3fb55963c8cc
jgb1983-03-12s2t02.flac:ac06547dbd900d81e38152ea8b3cdf84
jgb1983-03-12s2t03.flac:3ec7c93f489065903145200ced388f1a
jgb1983-03-12s2t04.flac:3545fe33c5598c837287e3528f899270
jgb1983-03-12s2t05.flac:f6a4f67eaf91bb96b185b133951e6d84
jgb1983-03-12.md5
e7087400941c65cd7cc73cb60385f478 *jgb1983-03-12s1t01.flac
3d3a9fe047bb7cb388caf6c4196b9f2f *jgb1983-03-12s1t02.flac
9b0de0bcb24765706fbbfe140e31f096 *jgb1983-03-12s1t03.flac
dc7d615bb1faa50d124bffc01affeab2 *jgb1983-03-12s1t04.flac
4ccd503d540cb986b2ccc3c6b522a0b7 *jgb1983-03-12s2t01.flac
01e2db386cb5234b4d375c846e66dfa4 *jgb1983-03-12s2t02.flac
9aa48d860e5bd5152342b000ec1a9e99 *jgb1983-03-12s2t03.flac
8016c8571f9e6e5d8b51a955d5bb7865 *jgb1983-03-12s2t04.flac
02f81af8ad43bbd8db1f41d4b2e34044 *jgb1983-03-12s2t05.flac

Comments
Add Comment
Other Sources (comments)
Jerry Garcia Band, Late... (0) Jerry Garcia Band.... (1) JGB, flac1644; Late Show;... (0) JGB, flac2448, Early Show;... (0) JGB, flac1644, Early Show;... (0)
Date User Comment