Browse Collections Artists Sources   Search Dates

Add Show    List Management    Help


Garcia 03/12/83
Beverly Theatre, Beverly Hills, CA
Comments Add Comment    Source Collectors    Add to Collection    Add to Want List    History
Source # 142724 Other Sources
Entered by Joe Jupille
Checksums jgb1983-03-12.ffp , jgb1983-03-12.md5
Disc Counts 0 / 0
Media Size Compressed: 576.25 MB (604237824 bytes)
Uncompressed: 941.4 MB (987132444 bytes)
Date Circulated
Date Added
07/22/2018
07/22/2018
Source Summary JGB, flac1644; Late Show; Source: Lo-gen AUD (unknown equipment) > Cassettes rescued from ebay. Transfer: Maxell XLII-90's > Nakamichi CR-5A > Edirol FA-66 > Wavelab 2448 > CD-Wave (24bit-output) > R8Brain SRC > TLH > FLAC 1644 tagged. Transferred by Andrew F. 07/2018 
Source Information - Download Text | Download Zip
JERRY GARCIA BAND
Beverly Theatre
Beverly Hills CA
03-12-1983
Late Show

16bit/44.1kHz file-set

s1t01 The Harder They Come
s1t02 Mission in the Rain
s1t03 Valerie
s1t04 Catfish John

s2t01 Sugaree
s2t02 The Night They Drove Old Dixie Down
s2t03 Dear Prudence
s2t04 Tangled Up in Blue
s2t05 Encore: Midnight Moonlight

Source: Lo-gen AUD (unknown equipment) > Cassettes rescued from ebay.

Transfer: Maxell XLII-90's > Nakamichi CR-5A > Edirol FA-66 > Wavelab
2448 > CD-Wave (24bit-output) > R8Brain SRC > TLH > FLAC 1644 tagged.
Transferred by Andrew F. 07/2018

Note: Does not match the recording found on ID-17147 and provides the
previously missing encore. Levels start off low in Harder They Come.

    length     expanded size    cdr  WAVE problems  fmt   ratio  filename
    12:02.58      127497260 B   ---   --   ---xx   flac  0.6145  jgb1983-03-12s1t01.flac
     9:27.73      100190540 B   ---   --   ---xx   flac  0.6035  jgb1983-03-12s1t02.flac
     7:35.54       80389052 B   ---   --   ---xx   flac  0.6066  jgb1983-03-12s1t03.flac
    10:33.46      111769436 B   ---   --   ---xx   flac  0.6064  jgb1983-03-12s1t04.flac
    12:32.46      132761036 B   ---   --   ---xx   flac  0.6135  jgb1983-03-12s2t01.flac
     9:06.04       96323852 B   ---   --   ---xx   flac  0.5926  jgb1983-03-12s2t02.flac
    13:06.02      138655148 B   ---   --   ---xx   flac  0.6035  jgb1983-03-12s2t03.flac
    10:15.74      108660092 B   ---   --   ---xx   flac  0.6341  jgb1983-03-12s2t04.flac
     8:35.17       90886028 B   ---   --   ---xx   flac  0.6326  jgb1983-03-12s2t05.flac
    93:15.74      987132444 B                            0.6118  (9 files)

No errors occured.


Show Checksums
jgb1983-03-12.ffp
jgb1983-03-12s1t01.flac:68c17d97ed0e6f02c85004aa3b84aa00
jgb1983-03-12s1t02.flac:b35d19d95878952615b8285fb462ec83
jgb1983-03-12s1t03.flac:ebbf685723d19b93f8b67883815a8e43
jgb1983-03-12s1t04.flac:e87bcd76cc6b7f2e267da2f14ceecf22
jgb1983-03-12s2t01.flac:00883e77bce5b349d86d2fe5de51b368
jgb1983-03-12s2t02.flac:304feb50203363dd74e50b1a1237a24d
jgb1983-03-12s2t03.flac:d1a81000cbf435e176fdeb5a504193e6
jgb1983-03-12s2t04.flac:7cd11600bd606a26fa2174a747d40d77
jgb1983-03-12s2t05.flac:7defd9cb4f44c38de04a3980249541a3
jgb1983-03-12.md5
0da5a8d6a819032fc13242f4be5b5998 *jgb1983-03-12s1t01.flac
3c55d1b82c6086dada735b20fdb1796a *jgb1983-03-12s1t02.flac
0c73ba814b18aff763d94e914a4d0d33 *jgb1983-03-12s1t03.flac
efac17521a0af890d69dd70e82b5803b *jgb1983-03-12s1t04.flac
c0d2d32553cc63e9cf9c43b768823cfb *jgb1983-03-12s2t01.flac
74861b72ca9992c0bd2c3954785f9b90 *jgb1983-03-12s2t02.flac
5b68651323c74975fd01defa8b28829c *jgb1983-03-12s2t03.flac
c5a19e24169955901195891c1d4f3dfe *jgb1983-03-12s2t04.flac
01a473002ed6d7c864bf29a64d205942 *jgb1983-03-12s2t05.flac

Comments
Add Comment
Other Sources (comments)
Jerry Garcia Band, Late... (0) Jerry Garcia Band.... (1) JGB, flac2448; Late Show;... (0) JGB, flac2448, Early Show;... (0) JGB, flac1644, Early Show;... (0)
Date User Comment