Browse Collections Artists Sources   Search Dates

Add Show    List Management    Help


Garcia 03/12/83
Beverly Theatre, Beverly Hills, CA
Comments Add Comment    Source Collectors    Add to Collection    Add to Want List    History
Source # 142725 Other Sources
Entered by Joe Jupille
Checksums jgb1983-03-12.md5 , jgb1983-03-12.ffp
Disc Counts 0 / 0
Media Size Compressed: 792.23 MB (830709760 bytes)
Uncompressed: 1.06 GB (1142033344 bytes)
Date Circulated
Date Added
07/22/2018
07/22/2018
Source Summary JGB, flac2448, Early Show; Source: Lo-gen AUD (unknown equipment) > Cassette rescued from ebay. Transfer: Maxell XLIIS-90 > Nakamichi CR-5A > Edirol FA-66 > Wavelab 2448 > CD-Wave (24bit-output) > TLH > FLAC 2448 tagged. Transferred by Andrew F. 07/2018 
Source Information - Download Text | Download Zip
JERRY GARCIA BAND
Beverly Theatre
Beverly Hills CA
03-12-1983
Early Show

24bit/48kHz file-set

01 How Sweet It Is
02 They Love Each Other
03 Let it Rock
04 Love in the Afternoon
05 I Second that Emotion
06 Simple Twist of Fate
07 Run for the Roses
08 Encore: Deal

Source: Lo-gen AUD (unknown equipment) > Cassette rescued from ebay.

Transfer: Maxell XLIIS-90 > Nakamichi CR-5A > Edirol FA-66 > Wavelab
2448 > CD-Wave (24bit-output) > TLH > FLAC 2448 tagged. Transferred by
Andrew F. 07/2018

Note: ID-26207, which circulated with this date, turned out to be a
mislabeled copy of the 03/13/83 show; this is the 03/12/83 early show.

    length     expanded size    cdr  WAVE problems  fmt   ratio  filename
     7:45.867     134169644 B   cxx   --   ---xx   flac  0.7240  jgb1983-03-12t01.flac
     8:08.640     140728364 B   cxx   --   ---xx   flac  0.7253  jgb1983-03-12t02.flac
     7:48.187     134837804 B   cxx   --   ---xx   flac  0.7429  jgb1983-03-12t03.flac
     8:50.613     152816684 B   cxx   --   ---xx   flac  0.7240  jgb1983-03-12t04.flac
     8:35.827     148558124 B   cxx   --   ---xx   flac  0.7389  jgb1983-03-12t05.flac
    12:35.400     217555244 B   cxx   --   ---xx   flac  0.6988  jgb1983-03-12t06.flac
     5:34.533      96345644 B   cxx   --   ---xx   flac  0.7439  jgb1983-03-12t07.flac
     6:46.326     117021836 B   cxx   --   ---xx   flac  0.7429  jgb1983-03-12t08.flac
    66:05.392    1142033344 B                            0.7271  (8 files)

No errors occured.


Show Checksums
jgb1983-03-12.md5
4792e2121d0cacc955c79c4e605fc90d *jgb1983-03-12t01.flac
8e4f4f6c009fbd0d3c311c0245b9e3d7 *jgb1983-03-12t02.flac
bc0774ad1749f7872114e35c0cf7705b *jgb1983-03-12t03.flac
8ba3771dfc4108191b359520baed2cb2 *jgb1983-03-12t04.flac
881cb1b36d87639f4ed85ee639c517ec *jgb1983-03-12t05.flac
7bd191d2bc9ea31ac69546a0552f68e6 *jgb1983-03-12t06.flac
f00e70fbe50575915ed5ada296d0f324 *jgb1983-03-12t07.flac
5ac72062f281c138764412f3226f5a7c *jgb1983-03-12t08.flac
jgb1983-03-12.ffp
jgb1983-03-12t01.flac:a487cf88371a707ee17573de85f86540
jgb1983-03-12t02.flac:3af5dbc03f27b53c8b9296fd156d760f
jgb1983-03-12t03.flac:242e874ff20c76a15f7337d4427a6593
jgb1983-03-12t04.flac:65c64210adb3a6e564db34e014482cdc
jgb1983-03-12t05.flac:5a310146987d1556a1a3ec00f8f7eb12
jgb1983-03-12t06.flac:9a295dc3cf233709d2cff8bfce9f785a
jgb1983-03-12t07.flac:dff02d4c72ca3c97987b71aac26cbd12
jgb1983-03-12t08.flac:6bd82ffef5b0b45b72b223b24c554b9d

Comments
Add Comment
Other Sources (comments)
Jerry Garcia Band, Late... (0) Jerry Garcia Band.... (1) JGB, flac2448; Late Show;... (0) JGB, flac1644; Late Show;... (0) JGB, flac1644, Early Show;... (0)
Date User Comment