Browse Collections Artists Sources   Search Dates

Add Show    List Management    Help


Garcia 03/12/83
Beverly Theatre, Beverly Hills, CA
Comments Add Comment    Source Collectors    Add to Collection    Add to Want List    History
Source # 142726 Other Sources
Entered by Joe Jupille
Checksums jgb1983-03-12.ffp , jgb1983-03-12.md5
Disc Counts 0 / 0
Media Size Compressed: 399.21 MB (418603008 bytes)
Uncompressed: 667.09 MB (699496912 bytes)
Date Circulated
Date Added
07/22/2018
07/22/2018
Source Summary JGB, flac1644, Early Show; Source: Lo-gen AUD (unknown equipment) > Cassette rescued from ebay. Transfer: Maxell XLIIS-90 > Nakamichi CR-5A > Edirol FA-66 > Wavelab 2448 > CD-Wave (24bit-output) > R8Brain SRC > TLH > FLAC 1644 tagged. Transferred by Andrew F. 07/2018 
Source Information - Download Text | Download Zip
JERRY GARCIA BAND
Beverly Theatre
Beverly Hills CA
03-12-1983
Early Show

16bit/44.1kHz file-set

01 How Sweet It Is
02 They Love Each Other
03 Let it Rock
04 Love in the Afternoon
05 I Second that Emotion
06 Simple Twist of Fate
07 Run for the Roses
08 Encore: Deal

Source: Lo-gen AUD (unknown equipment) > Cassette rescued from ebay.

Transfer: Maxell XLIIS-90 > Nakamichi CR-5A > Edirol FA-66 > Wavelab
2448 > CD-Wave (24bit-output) > R8Brain SRC > TLH > FLAC 1644 tagged.
Transferred by Andrew F. 07/2018

Note: ID-26207, which circulated with this date, turned out to be a
mislabeled copy of the 03/13/83 show; this is the 03/12/83 early show.

    length     expanded size    cdr  WAVE problems  fmt   ratio  filename
     7:45.65       82178924 B   ---   --   ---xx   flac  0.5938  jgb1983-03-12t01.flac
     8:08.48       86196140 B   ---   --   ---xx   flac  0.5954  jgb1983-03-12t02.flac
     7:48.14       82588172 B   ---   --   ---xx   flac  0.6239  jgb1983-03-12t03.flac
     8:50.46       93600236 B   ---   --   ---xx   flac  0.5933  jgb1983-03-12t04.flac
     8:35.62       90991868 B   ---   --   ---xx   flac  0.6170  jgb1983-03-12t05.flac
    12:35.30      133252604 B   ---   --   ---xx   flac  0.5506  jgb1983-03-12t06.flac
     5:34.40       59011724 B   ---   --   ---xx   flac  0.6248  jgb1983-03-12t07.flac
     6:46.25       71677244 B   ---   --   ---xx   flac  0.6242  jgb1983-03-12t08.flac
    66:05.30      699496912 B                            0.5980  (8 files)

No errors occured.


Show Checksums
jgb1983-03-12.ffp
jgb1983-03-12t01.flac:253bcb9adc68444d13a2a0f184ede682
jgb1983-03-12t02.flac:0b06082b9673f7e09f199592d7d06a93
jgb1983-03-12t03.flac:f736d93344c7f60fff2b3abc226de487
jgb1983-03-12t04.flac:e057e1bba2465c8c7148e3958b7ce8c0
jgb1983-03-12t05.flac:fa909813e152b5c80673b259882b18f7
jgb1983-03-12t06.flac:f89e47333c78b5d8a9e8346431cdf85e
jgb1983-03-12t07.flac:4d330ff2a56286c35389550d9020f4da
jgb1983-03-12t08.flac:20d28c60d3232d2ffaa3cee054f3e3c2
jgb1983-03-12.md5
015f751e12191ac7c34b9d77a74db877 *jgb1983-03-12t01.flac
085e8d82527b39b894fda3cd498d5fbc *jgb1983-03-12t02.flac
9ec2aa25aad57f361fbd02e2eb1fdf99 *jgb1983-03-12t03.flac
cfd1fe59df1cdec65efaacebdba9eb95 *jgb1983-03-12t04.flac
e87df05b3dc556f10c26971e47956a96 *jgb1983-03-12t05.flac
4a4f346d2193f57a46b8eb19bf885e01 *jgb1983-03-12t06.flac
e095e4ef6c1d2b5d95abf18fb50012d8 *jgb1983-03-12t07.flac
618d4847ce96a2bb09b446a918ca5bd2 *jgb1983-03-12t08.flac

Comments
Add Comment
Other Sources (comments)
Jerry Garcia Band, Late... (0) Jerry Garcia Band.... (1) JGB, flac2448; Late Show;... (0) JGB, flac1644; Late Show;... (0) JGB, flac2448, Early Show;... (0)
Date User Comment