Browse Collections Artists Sources   Search Dates

Add Show    List Management    Help


String Cheese Incident 04/22/99
Headliner's, Louisville, KY
Comments Add Comment    Source Collectors    Add to Collection    Add to Want List    History
Source # 2053 Other Sources
Entered by Brad Leblanc
Checksums d1 , d2 , d3
Disc Counts 2 / 3
Media Size
Date Circulated
Date Added
11/30/00
11/30/2000
Source Summary MG210 > Oade Optical Cable > SBMI > Sony D100 (DAT) Conversion: Fostex D5 > Oade Optical Cable > HHB CDR-850 > CD Master > EAC > .shn  
Source Information - Download Text | Download Zip
4/22/99 - Headliner's, Louisville, KY
Source:  DAUD    mg210>Oade Optical Cable>SBMI>Sony D100 (DAT)
Conversion: Fostex D5>Oade Optical Cable>HHB CDR-850>CD Master>EAC>.shn
(seekable!)
Taper: John Craft
Seed: Brian Cole   [email protected]      11/28/2000


DISC 1
Set 1:
1.  Hello Everybody
2.  Mouna Bowa
3.  Miss Brown's Tea House
4.  Lonsome Fiddle Blues  #
5.  California Rain
6.  Born On The Wrong Planet

DISC 2
Set 1 con't
1.  Dont Say>
2.  Smile
Set 2:
3.  Suntan,
4.  Black Clouds>
5.  So What>
6.  Pouring Rain Jam>
7.  Black Clouds
8.  Cottonmouth

DISC 3
Set 2 con't
1.  Jellyfish>
2.  The Best Feeling>
3.  Remington Ride
Encore:
5.  Encore Intro
5.  Gone So Long
6.  San Jose
Encore 2:
7.  Walk This Way

Show Notes:
# = minor blemish @ ~6:14

The CD Master Disc 3 was faded out/in by the taper between the end of
San Jose and the beginning of Walk This Way due to the 2nd encore

All shows recorded during this time period are AUD recordings due to SCI
recording for their live 2 disc release Carnival '99.


Seed Notes:
I seeded this show because it is a very HQ DAUD. I have heard rumors of
another copy circulating but no-one on etree has been able to confirm this.
EAC Extraction logs are attached below.

Color Covers are included for this show.

Enjoy!

-Brian

=====================================================================
EAC extraction logfile from 28. November 2000, 6:40 for CD
SCI / 4.22.1999

Used drive  : KENWOOD CD-ROM UCR-421   Adapter: 1  ID: 0  LUN: 0
Read mode   : Secure with NO C2, accurate stream, disable cache
Read offset : 0
Overread into Lead-In and Lead-Out : No

Used output format : Internal WAV Routines
                     44.100 Hz; 16 Bit; Stereo

Other options      :
    Fill up missing offset samples with silence : Yes
    Delete leading and trailing silent blocks : No
    Installed external ASPI interface

***DISC 1***
Track  1
   Filename E:\Temp\sci99-04-22d1t01.wav

   Peak level 100.0 %
   Track quality 99.7 %
   Test CRC 804694AD
   Copy CRC 804694AD
   Copy OK

Track  2
   Filename E:\Temp\sci99-04-22d1t02.wav

   Peak level 94.9 %
   Track quality 99.8 %
   Test CRC 734DAA2D
   Copy CRC 734DAA2D
   Copy OK

Track  3
   Filename E:\Temp\sci99-04-22d1t03.wav

   Peak level 73.5 %
   Track quality 99.9 %
   Test CRC 6984C31B
   Copy CRC 6984C31B
   Copy OK

Track  4
   Filename E:\Temp\sci99-04-22d1t04.wav

   Peak level 72.5 %
   Track quality 99.9 %
   Test CRC 3507A5FF
   Copy CRC 3507A5FF
   Copy OK

Track  5
   Filename E:\Temp\sci99-04-22d1t05.wav

   Peak level 72.1 %
   Track quality 99.9 %
   Test CRC 970F7D28
   Copy CRC 970F7D28
   Copy OK

Track  6
   Filename E:\Temp\sci99-04-22d1t06.wav

   Peak level 72.9 %
   Track quality 99.9 %
   Test CRC ADEC38F5
   Copy CRC ADEC38F5
   Copy OK

No errors occured


***DISC 2***
Track  1
   Filename E:\Temp\sci99-04-22d2t01.wav

   Peak level 72.4 %
   Track quality 99.9 %
   Test CRC F778ABB8
   Copy CRC F778ABB8
   Copy OK

Track  2
   Filename E:\Temp\sci99-04-22d2t02.wav

   Peak level 73.0 %
   Track quality 99.9 %
   Test CRC A3D62FCE
   Copy CRC A3D62FCE
   Copy OK

Track  3
   Filename E:\Temp\sci99-04-22d2t03.wav

   Peak level 74.3 %
   Track quality 99.9 %
   Test CRC E2209223
   Copy CRC E2209223
   Copy OK

Track  4
   Filename E:\Temp\sci99-04-22d2t04.wav

   Peak level 72.3 %
   Track quality 99.8 %
   Test CRC 97292178
   Copy CRC 97292178
   Copy OK

Track  5
   Filename E:\Temp\sci99-04-22d2t05.wav

   Peak level 72.9 %
   Track quality 99.9 %
   Test CRC 9C579569
   Copy CRC 9C579569
   Copy OK

Track  6
   Filename E:\Temp\sci99-04-22d2t06.wav

   Peak level 72.3 %
   Track quality 99.9 %
   Test CRC AA858C95
   Copy CRC AA858C95
   Copy OK

Track  7
   Filename E:\Temp\sci99-04-22d2t07.wav

   Peak level 72.1 %
   Track quality 99.9 %
   Test CRC E9E9F20F
   Copy CRC E9E9F20F
   Copy OK

Track  8
   Filename E:\Temp\sci99-04-22d2t08.wav

   Peak level 72.0 %
   Track quality 100.0 %
   Test CRC 81E6DCDB
   Copy CRC 81E6DCDB
   Copy OK

No errors occured


***DISC 3***
Track  1
   Filename E:\Temp\sci99-04-22d3t01.wav

   Peak level 72.1 %
   Track quality 99.9 %
   Test CRC 014F6247
   Copy CRC 014F6247
   Copy OK

Track  2
   Filename E:\Temp\sci99-04-22d3t02.wav

   Peak level 71.9 %
   Track quality 99.9 %
   Test CRC FDB517B3
   Copy CRC FDB517B3
   Copy OK

Track  3
   Filename E:\Temp\sci99-04-22d3t03.wav

   Peak level 71.5 %
   Track quality 99.8 %
   Test CRC 1C92E4BC
   Copy CRC 1C92E4BC
   Copy OK

Track  4
   Filename E:\Temp\sci99-04-22d3t04.wav

   Peak level 65.5 %
   Track quality 100.0 %
   Test CRC 42F1E6F8
   Copy CRC 42F1E6F8
   Copy OK

Track  5
   Filename E:\Temp\sci99-04-22d3t05.wav

   Peak level 66.6 %
   Track quality 100.0 %
   Test CRC 0080D74E
   Copy CRC 0080D74E
   Copy OK

Track  6
   Filename E:\Temp\sci99-04-22d3t06.wav

   Peak level 71.3 %
   Track quality 99.9 %
   Test CRC 4C2B9CC8
   Copy CRC 4C2B9CC8
   Copy OK

Track  7
   Filename E:\Temp\sci99-04-22d3t07.wav

   Peak level 71.6 %
   Track quality 99.9 %
   Test CRC 2AEDFC46
   Copy CRC 2AEDFC46
   Copy OK

No errors occured


End of status report


Show Checksums
d1
57a35d725f13154cd5d603d9b6dd0f43 *sci99-04-22d1t06.shn
18c11724a6826f1cf0db132d77ce4983 *sci99-04-22d1t03.shn
3475907d8f073ba2e16f51e3430c64e7 *sci99-04-22d1t04.shn
797eafbab27f3026a7f6f5d3694e3f8b *sci99-04-22d1t05.shn
2e04327ffbe07577d33b23d11343cb39 *sci99-04-22d1t02.shn
896d7b5c0f099d48245e238435c10dbb *sci99-04-22d1t01.shn
d2
1fc4c87435a6f7a6c0b169b7191096da *sci99-04-22d2t07.shn
d0391fe1d8a050b98e477d0af29cf723 *sci99-04-22d2t03.shn
53d57f9d3c788b0fe00b9ad33f3d7981 *sci99-04-22d2t04.shn
b9a17fee4e46562f978013dd23dcdc77 *sci99-04-22d2t05.shn
e26f75933bc4d3170a585ff7aa6edef5 *sci99-04-22d2t06.shn
409d01f2b5623aa626994e8dd6de8968 *sci99-04-22d2t02.shn
3ea343b6727c22c6628ab9082a7b6b5b *sci99-04-22d2t08.shn
5a13c20744f860760069eb11fdffebb6 *sci99-04-22d2t01.shn
d3
e8e252845ac3f58ced385003e96a9279 *sci99-04-22d3t05.shn
47517c13eb29ca3457b34a897bb72cc5 *sci99-04-22d3t03.shn
2c1110c9dca19d15afc6d0bbaa0d4065 *sci99-04-22d3t04.shn
94d4ecb8ea92215d57528d31f4af7ee6 *sci99-04-22d3t02.shn
35257869ba544ba0ad886e60035aba6d *sci99-04-22d3t06.shn
2ed3637233251f6322be89be24fc0889 *sci99-04-22d3t07.shn
d8ce6c4a871993717bffde3b72f5ee14 *sci99-04-22d3t01.shn

Comments
Add Comment
Other Sources (comments)
Audix UEM81's > SBM-1 >... (0)
Date User Comment