Browse Collections Artists Sources   Search Dates

Add Show    List Management    Help


Grateful Dead 10/27/90
The Zenith, Paris, France
Comments Add Comment    Source Collectors    Add to Collection    Add to Want List    History
Source # 21254 Other Sources
Entered by dr.unclear
Checksums st5 , shn-md5 , orig-md5
Disc Counts 2 / 3
Media Size
Date Circulated
Date Added
02/22/2003
12/24/2003
Source Summary sbe-fixed version of the SBD>DAT>CD source 
  Archive
Source Information - Download Text | Download Zip
Grateful Dead
Date: 10-27-90
The Zenith, Paris, France

Source: SBD
Lineage: DAT> CD> SHN

Disc 1
1. Hell in a Bucket
2. Sugaree
3. Minglewood Blues
4. Jack-a-roe
5. Black-Throated Wind
6. Ramble on Rose
7. When I Paint My Masterpiece
8. Bird Song
9. Promised Land

Disc 2
1. China Cat Sunflower
2. I Know You Rider
3. Saint of Circumstance
4. Crazy Fingers
5. Playing in the Band
6. drums

Disc 3
1. space
2. Playing in the Band
3. Stella Blue
4. Throwin' Stones
5. Not Fade Away
6. One More Saturday Night (encore)

Notes:

A little blurble at 0:09 of Crazy Fingers, about 1/4 second.

A cut at the beginning of drums, about 1:00 in. Impossible to tell how long, but the drums segment is fairly long, so I'm guessing the cut is negligible.

Drums and space are not cut between them and may be reassembled seamlessly.

The levels in Stella Blue are pretty low. Decided not to attempt a fix for 1 or 2 dB.

An insufferably long NFA chant was left, against all of my better judgment, on the end of d3t5. That's what the "Skip" button is for.

Thanks to Tommy Danscuk for the discs. Seeded by Peter Braverman ([email protected]), May 2002.

****************
Date: 2/22/03
Sector boundary errors on all tracks were fixed with shntool and new md5s were generated with mkwACT by [email protected]

****************
Date: 2/4/2008
starting with shnid=9373 (confirmed to md5 match), the original md5's here could be obtained if all tracks were fixed together (so some of d2t01 was merged into d1t09, etc...) except for d2t06.  Inspection of the original 9373 shntool output indicated that track had non-canonical headers. It is presumed that the difference in the original md5's posted for this seed (shnid=21254) and the ones in preferred circulation was the repair of the non-canonical header on d2t06.  Attached is the shntool output for the shn's for this set.

    length     expanded size   cdr  WAVE problems filename
     6:16.23       66380540    ---   --   ---xx   gd90-10-27d1t01-fixed.shn
    12:01.54      127311452    ---   --   ---xx   gd90-10-27d1t02-fixed.shn
     8:13.63       87113420    ---   --   ---xx   gd90-10-27d1t03-fixed.shn
     5:39.34       59879612    ---   --   ---xx   gd90-10-27d1t04-fixed.shn
     8:26.07       89274908    ---   --   ---xx   gd90-10-27d1t05-fixed.shn
     7:46.05       82214204    ---   --   ---xx   gd90-10-27d1t06-fixed.shn
     5:09.16       54545276    ---   --   ---xx   gd90-10-27d1t07-fixed.shn
    11:52.43      125697980    ---   --   ---xx   gd90-10-27d1t08-fixed.shn
     4:44.71       50264636    ---   --   ---xx   gd90-10-27d1t09-fixed.shn
     8:05.52       85676348    ---   --   ---xx   gd90-10-27d2t01-fixed.shn
     6:18.23       66733340    ---   --   ---xx   gd90-10-27d2t02-fixed.shn
     6:22.60       67525964    ---   --   ---xx   gd90-10-27d2t03-fixed.shn
     9:26.71      100009436    ---   --   ---xx   gd90-10-27d2t04-fixed.shn
    10:46.11      113980316    ---   --   ---xx   gd90-10-27d2t05-fixed.shn
    10:19.52      109313948    ---   --   ---xx   gd90-10-27d2t06-fixed.shn
     9:37.06      101796956    ---   --   ---xx   gd90-10-27d3t01-fixed.shn
     4:05.23       43272140    ---   --   ---xx   gd90-10-27d3t02-fixed.shn
     9:16.03       98085500    ---   --   ---xx   gd90-10-27d3t03-fixed.shn
    10:13.58      108269660    ---   --   ---xx   gd90-10-27d3t04-fixed.shn
    10:09.54      107554652    ---   --   ---xx   gd90-10-27d3t05-fixed.shn
     5:10.02       54688748    ---   --   ---xx   gd90-10-27d3t06-fixed.shn
   170:01.56     1799589036 B                     (totals for 21 files, 0.5293 overall compression ratio)
Show Checksums
st5
b465322f23b09f08443dbbc369c5a99b [shntool] gd90-10-27d1t01-fixed.shn
30470be70bdb9c4f92e3345e43e74510 [shntool] gd90-10-27d1t02-fixed.shn
9d19fce3c8a84520425bddd68c570afe [shntool] gd90-10-27d1t03-fixed.shn
ec29e4653f42c950a003b77a1c607220 [shntool] gd90-10-27d1t04-fixed.shn
cbc113b277218ebbdb0b8fbebf6a1f30 [shntool] gd90-10-27d1t05-fixed.shn
406395cf581365b3bf3a388671e34c9d [shntool] gd90-10-27d1t06-fixed.shn
5ecb03f98c2dccd77e41334548b573d6 [shntool] gd90-10-27d1t07-fixed.shn
c3da3fca13a24481e221a44e8c4841bc [shntool] gd90-10-27d1t08-fixed.shn
3a9238a51af3b7c2c5a29830a8e59c83 [shntool] gd90-10-27d1t09-fixed.shn
052c4531e9943e25b9a56ddd08518021 [shntool] gd90-10-27d2t01-fixed.shn
8ffaaea98a2304fa0744166700ec4640 [shntool] gd90-10-27d2t02-fixed.shn
eec330b439a1893a4e681e49bf368793 [shntool] gd90-10-27d2t03-fixed.shn
9d2ff651ffd71fc126a07510533c8d99 [shntool] gd90-10-27d2t04-fixed.shn
2241d9513b4eeb1ccd6a40da6c7537d7 [shntool] gd90-10-27d2t05-fixed.shn
dac8c32ca5821253ce733b666bbe2f96 [shntool] gd90-10-27d2t06-fixed.shn
1bfa48777ca0a9c04816262afc56236e [shntool] gd90-10-27d3t01-fixed.shn
82ed1ad98d1b741d7de8ff1ecc279dab [shntool] gd90-10-27d3t02-fixed.shn
6438faea9b165f1f13c3845149ce10d7 [shntool] gd90-10-27d3t03-fixed.shn
1004923a3e230b26763675622af6e4d2 [shntool] gd90-10-27d3t04-fixed.shn
1e23bc0d31aa0a79b3cb3e0dcaff48a0 [shntool] gd90-10-27d3t05-fixed.shn
97796fb426792ca792eea997a452f76c [shntool] gd90-10-27d3t06-fixed.shn
shn-md5
2f6d0b96d76467242422e5dbfcacbfd9 *gd90-10-27d1t01-fixed.shn
acff956c16addbd324a46e20c7ff9b83 *gd90-10-27d1t02-fixed.shn
997f3d54fd95f549c71e6233931df5bb *gd90-10-27d1t03-fixed.shn
1059e0b0e7ef3af7b5e1db634259869d *gd90-10-27d1t04-fixed.shn
0fe422153ff0127de23acda764f893ce *gd90-10-27d1t05-fixed.shn
10ed1b2c815c8a3453080d8be2d8efb2 *gd90-10-27d1t06-fixed.shn
520f5f3b47dbdc5b393298b1de20bf19 *gd90-10-27d1t07-fixed.shn
80bb960d32a0455d45fa927439c7bf7e *gd90-10-27d1t08-fixed.shn
c64f036988382c6c26ceb91210e0779a *gd90-10-27d1t09-fixed.shn
5b104f849163df37905d7a4a7b3fe081 *gd90-10-27d2t01-fixed.shn
b652ec39c0c1a933531010c8b994b8cc *gd90-10-27d2t02-fixed.shn
4e8395e9b8f2a2ed6ecc098237b2c10d *gd90-10-27d2t03-fixed.shn
a99ce104831b724b3f79d10adebdd465 *gd90-10-27d2t04-fixed.shn
0539cbb8931b46bdb520a4f3577e976b *gd90-10-27d2t05-fixed.shn
01222e5225028316c42c0d14fe6bd242 *gd90-10-27d2t06-fixed.shn
3dc023c3fb061b809d4310a318df0b88 *gd90-10-27d3t01-fixed.shn
bd22a1d2810ac40a7b8738f6efa8fd27 *gd90-10-27d3t02-fixed.shn
7f79c8a1928b333bc0b5fa1715ef20f6 *gd90-10-27d3t03-fixed.shn
901122d6be37c8ea19ddae3ea94ad7cb *gd90-10-27d3t04-fixed.shn
c0585357e96bc5137794826014b78a61 *gd90-10-27d3t05-fixed.shn
473b4da371a25f26c3671923d02d1d82 *gd90-10-27d3t06-fixed.shn
orig-md5
2f6d0b96d76467242422e5dbfcacbfd9 *gd90-10-27d1t01-fixed.shn
acff956c16addbd324a46e20c7ff9b83 *gd90-10-27d1t02-fixed.shn
997f3d54fd95f549c71e6233931df5bb *gd90-10-27d1t03-fixed.shn
1059e0b0e7ef3af7b5e1db634259869d *gd90-10-27d1t04-fixed.shn
0fe422153ff0127de23acda764f893ce *gd90-10-27d1t05-fixed.shn
10ed1b2c815c8a3453080d8be2d8efb2 *gd90-10-27d1t06-fixed.shn
520f5f3b47dbdc5b393298b1de20bf19 *gd90-10-27d1t07-fixed.shn
80bb960d32a0455d45fa927439c7bf7e *gd90-10-27d1t08-fixed.shn
c64f036988382c6c26ceb91210e0779a *gd90-10-27d1t09-fixed.shn
5b104f849163df37905d7a4a7b3fe081 *gd90-10-27d2t01-fixed.shn
b652ec39c0c1a933531010c8b994b8cc *gd90-10-27d2t02-fixed.shn
4e8395e9b8f2a2ed6ecc098237b2c10d *gd90-10-27d2t03-fixed.shn
a99ce104831b724b3f79d10adebdd465 *gd90-10-27d2t04-fixed.shn
0539cbb8931b46bdb520a4f3577e976b *gd90-10-27d2t05-fixed.shn
154531227ebfd9271a036387dfb02e1d *gd90-10-27d2t06-fixed.shn
3dc023c3fb061b809d4310a318df0b88 *gd90-10-27d3t01-fixed.shn
bd22a1d2810ac40a7b8738f6efa8fd27 *gd90-10-27d3t02-fixed.shn
7f79c8a1928b333bc0b5fa1715ef20f6 *gd90-10-27d3t03-fixed.shn
901122d6be37c8ea19ddae3ea94ad7cb *gd90-10-27d3t04-fixed.shn
c0585357e96bc5137794826014b78a61 *gd90-10-27d3t05-fixed.shn
473b4da371a25f26c3671923d02d1d82 *gd90-10-27d3t06-fixed.shn

Comments
Add Comment
Other Sources (comments)
SBD>DAT>CD; via Tommy... (1) flac16; AUD Source:... (0) flac16; Source:... (0) flac16; Source:... (0) flac16/48kHz;... (0) flac24/96 ... (0) flac16; Recording... (0)
Date User Comment