Browse Collections Artists Sources   Search Dates

Add Show    List Management    Help


String Cheese Incident 07/23/96
Forest Queen, Crested Butte, CO
Comments Add Comment    Source Collectors    Add to Collection    Add to Want List    History
Source # 2171 Other Sources
Entered by Brad Leblanc
Checksums d1 , d2
Disc Counts 1 / 2
Media Size
Date Circulated
Date Added
12/15/00
04/22/2003
Source Summary DSBD; Conversion: Kenwood TrueX > EAC > .shn (seekable!)  
  Archive
Source Information - Download Text | Download Zip
String Cheese Incident
7/23/96 ? Forest Queen, Crested Butte, CO
Source: DSBD
Conversion:  Kenwood TrueX>EAC>shn(seekable!)

Taper: Unknown
Seed: Brian Cole [email protected]   12/11/00

DISC 1
Set I
1.  Remington Ride
2.  High on a Mountain Top
3.  Legend
4.  Unconditional Love
5.  Howling at the Moon>
6.  Lonesome Fiddle Blues
7.  Wake Up
8.  Rhum 'n Zouc>
9.  Jam>
10. Black Clouds
11. Walk This Way

DISC 2
Set II
1.  Chili Dawg
2.  Lively Up Yourself Jam>So What
3.  Resume Man
4.  Pent Up House
5.  Congo Square
6.  EMD (eat my dust)>Percussion>
7.  Born on the Wrong Planet
8.  Pirates
9.  Bigger Isn't Better

Show Notes:
No encore was played.  Missing last song (Whiskey Before Breakfast)

Seed Notes:
Levels are a touch low.  No normalizing was done in order to preserve the original recording.
EAC log extraction info is attached below
Color covers for this show courtesy of Larry Fox

Enjoy!

Brian
======================================================================

EAC extraction logfile from 11. December 2000, 15:52 for CD
String Cheese Incident / 7/23/96 Disc 1

Used drive  : KENWOOD CD-ROM UCR-421   Adapter: 1  ID: 0  LUN: 0
Read mode   : Secure with NO C2, accurate stream, disable cache
Read offset : 0
Overread into Lead-In and Lead-Out : No

Used output format : Internal WAV Routines
                     44.100 Hz; 16 Bit; Stereo

Other options      :
    Fill up missing offset samples with silence : Yes
    Delete leading and trailing silent blocks : No
    Installed external ASPI interface


Track  1
   Filename E:\Temp\sci96-07-23d1T01.wav

   Peak level 84.1 %
   Track quality 100.0 %
   Test CRC 20B5CD54
   Copy CRC 20B5CD54
   Copy OK

Track  2
   Filename E:\Temp\sci96-07-23d1T02.wav

   Peak level 47.9 %
   Track quality 100.0 %
   Test CRC 79B7413E
   Copy CRC 79B7413E
   Copy OK

Track  3
   Filename E:\Temp\sci96-07-23d1T03.wav

   Peak level 49.2 %
   Track quality 99.9 %
   Test CRC D028BFF4
   Copy CRC D028BFF4
   Copy OK

Track  4
   Filename E:\Temp\sci96-07-23d1T04.wav

   Peak level 82.1 %
   Track quality 99.9 %
   Test CRC EC9F3DB0
   Copy CRC EC9F3DB0
   Copy OK

Track  5
   Filename E:\Temp\sci96-07-23d1T05.wav

   Peak level 79.8 %
   Track quality 99.9 %
   Test CRC A0B54818
   Copy CRC A0B54818
   Copy OK

Track  6
   Filename E:\Temp\sci96-07-23d1T06.wav

   Peak level 99.9 %
   Track quality 99.9 %
   Test CRC DDEE9BE3
   Copy CRC DDEE9BE3
   Copy OK

Track  7
   Filename E:\Temp\sci96-07-23d1T07.wav

   Peak level 78.7 %
   Track quality 99.9 %
   Test CRC BA9163AC
   Copy CRC BA9163AC
   Copy OK

Track  8
   Filename E:\Temp\sci96-07-23d1T08.wav

   Peak level 78.3 %
   Track quality 99.9 %
   Test CRC D63C9ADD
   Copy CRC D63C9ADD
   Copy OK

Track  9
   Filename E:\Temp\sci96-07-23d1T09.wav

   Peak level 70.4 %
   Track quality 99.9 %
   Test CRC 6D94F971
   Copy CRC 6D94F971
   Copy OK

Track 10
   Filename E:\Temp\sci96-07-23d1T10.wav

   Peak level 77.5 %
   Track quality 100.0 %
   Test CRC BB98B49E
   Copy CRC BB98B49E
   Copy OK

Track 11
   Filename E:\Temp\sci96-07-23d1T11.wav

   Peak level 75.2 %
   Track quality 100.0 %
   Test CRC 39A5B48A
   Copy CRC 39A5B48A
   Copy OK

No errors occured

~~~DISC 2~~~
Track  1
   Filename E:\Temp\sci96-07-23d2T01.wav

   Peak level 65.5 %
   Track quality 100.0 %
   Test CRC C47C680E
   Copy CRC C47C680E
   Copy OK

Track  2
   Filename E:\Temp\sci96-07-23d2T02.wav

   Peak level 70.8 %
   Track quality 99.9 %
   Test CRC 41A5AEAE
   Copy CRC 41A5AEAE
   Copy OK

Track  3
   Filename E:\Temp\sci96-07-23d2T03.wav

   Peak level 56.3 %
   Track quality 100.0 %
   Test CRC D89908E7
   Copy CRC D89908E7
   Copy OK

Track  4
   Filename E:\Temp\sci96-07-23d2T04.wav

   Peak level 52.6 %
   Track quality 99.9 %
   Test CRC 3BFDA2FD
   Copy CRC 3BFDA2FD
   Copy OK

Track  5
   Filename E:\Temp\sci96-07-23d2T05.wav

   Peak level 89.8 %
   Track quality 100.0 %
   Test CRC AE7CFC08
   Copy CRC AE7CFC08
   Copy OK

Track  6
   Filename E:\Temp\sci96-07-23d2T06.wav

   Peak level 67.1 %
   Track quality 100.0 %
   Test CRC 8EA002F9
   Copy CRC 8EA002F9
   Copy OK

Track  7
   Filename E:\Temp\sci96-07-23d2T07.wav

   Peak level 46.6 %
   Track quality 100.0 %
   Test CRC 817B090C
   Copy CRC 817B090C
   Copy OK

Track  8
   Filename E:\Temp\sci96-07-23d2T08.wav

   Peak level 40.0 %
   Track quality 99.9 %
   Test CRC 246E6F68
   Copy CRC 246E6F68
   Copy OK

Track  9
   Filename E:\Temp\sci96-07-23d2T09.wav

   Peak level 69.2 %
   Track quality 100.0 %
   Test CRC 09903D77
   Copy CRC 09903D77
   Copy OK

No errors occured


End of status report


Show Checksums
d1
36c57475cc2c1e34b42bbc6ca5e8f371 *sci96-07-23d1T05.shn
01e427df09577233f230baf73cf04fbc *sci96-07-23d1T02.shn
869aa11792ad95dd2e23f34f70d00cb3 *sci96-07-23d1T03.shn
0bfb52f32e3e41ddf276514828c5fb5b *sci96-07-23d1T04.shn
9a898d3bdbc7f454992e44bdb4aa330c *sci96-07-23d1T01.shn
033cb7a6576addedfdad9535845d2d03 *sci96-07-23d1T06.shn
d67c815bcf3cedb5d4a66a4a4ad43640 *sci96-07-23d1T07.shn
437ad44b03650a03de48956508a12668 *sci96-07-23d1T08.shn
f9ffc41845cb972a578f0746df991325 *sci96-07-23d1T09.shn
eea563dbec94120b5ad1120dae76dafa *sci96-07-23d1T10.shn
d033e4658232b876e0ff2e2af7e22b98 *sci96-07-23d1T11.shn
d2
016dfac1277b4170760787aa22f93598 *sci96-07-23d2T07.shn
459b0445d538db03ee2481e85e6c9d18 *sci96-07-23d2T02.shn
d3f205fd80d287c2c2dc7455a845553b *sci96-07-23d2T03.shn
62a141ebe473e3ab58f963f1a34039ce *sci96-07-23d2T04.shn
67a314b1171ec4b797f510199b87b5d6 *sci96-07-23d2T05.shn
3db8cfd2f038354952dba1b85c4c155a *sci96-07-23d2T06.shn
4c2ea723fa446dab8c4a18d24d6f98f4 *sci96-07-23d2T01.shn
6c7c074f6f16572bd6ac4bca0ba6fc21 *sci96-07-23d2T08.shn
56b71bcb7840d89d16a7544cb51cfffe *sci96-07-23d2T09.shn

Comments
Add Comment
Date User Comment