Browse Collections Artists Sources   Search Dates

Add Show    List Management    Help


String Cheese Incident 10/09/99
Denison University, Granville, OH
Comments Add Comment    Source Collectors    Add to Collection    Add to Want List    History
Source # 2647 Other Sources
Entered by Brad Leblanc
Checksums d1 , d2 , d3
Disc Counts 2 / 3
Media Size
Date Circulated
Date Added
2/4/01
02/05/2001
Source Summary DSBD > DAT > CD > Kenwood TrueX > EAC > shn V3 (seekable) 
Source Information - Download Text | Download Zip
String Cheese Incident
10/9/99 - Dennison University
Granville, OH


Source: DSBD>DAT>CD
Conversion:  Kenwood TrueX>EAC>shn V3 (seekable)

Seed: Brian Cole [email protected]   2/5/01

DISC 1
Set 1:
1.  MLT
2.  Got What He Wanted>
3.  Jam>
4.  9-Pound Hammer
5.  Mercy Mercy Mercy
6.  Bigger Isn't Better> Jam> #
7.  Smile

DISC 2
Set 2:
1.  Come As You Are #
2.  Sweet Melinda> Jam>
3.  Rhythm of The Road> Work>

DISC 3
1.  Impressions> Kashmir jam>
2.  Roll Over
Encore:
3.  San Jose

Show Notes:
None

Seed Notes:
# = Edited minor blemishes

Color covers are available for this show courtesy of Larry Fox.


Enjoy!

-Brian
===================
EAC extraction logfile from 4. February 2001, 11:06 for CD
SCI 10/9/99 Disc 1

Used drive  : KENWOOD CD-ROM UCR-421   Adapter: 1  ID: 0  LUN: 0
Read mode   : Secure with NO C2, accurate stream, disable cache
Read offset : 0
Overread into Lead-In and Lead-Out : No

Used output format : Internal WAV Routines
                     44.100 Hz; 16 Bit; Stereo

Other options      :
    Fill up missing offset samples with silence : Yes
    Delete leading and trailing silent blocks : No
    Installed external ASPI interface


Track  1
   Filename E:\Temp\sci99-10-09d1t01.wav

   Peak level 79.9 %
   Track quality 99.8 %
   Test CRC 765DDD62
   Copy CRC 765DDD62
   Copy OK

Track  2
   Filename E:\Temp\sci99-10-09d1t02.wav

   Peak level 82.9 %
   Track quality 99.7 %
   Test CRC 876A5F10
   Copy CRC 876A5F10
   Copy OK

Track  3
   Filename E:\Temp\sci99-10-09d1t03.wav

   Peak level 60.5 %
   Track quality 99.8 %
   Test CRC 6C6877C2
   Copy CRC 6C6877C2
   Copy OK

Track  4
   Filename E:\Temp\sci99-10-09d1t04.wav

   Peak level 57.5 %
   Track quality 99.9 %
   Test CRC C40399A5
   Copy CRC C40399A5
   Copy OK

Track  5
   Filename E:\Temp\sci99-10-09d1t05.wav

   Peak level 70.3 %
   Track quality 99.7 %
   Test CRC B7F754D2
   Copy CRC B7F754D2
   Copy OK

Track  6
   Filename E:\Temp\sci99-10-09d1t06.wav

   Peak level 90.7 %
   Track quality 99.8 %
   Test CRC E322DAA6
   Copy CRC E322DAA6
   Copy OK

Track  7
   Filename E:\Temp\sci99-10-09d1t07.wav

   Peak level 93.7 %
   Track quality 99.8 %
   Test CRC F7D55961
   Copy CRC F7D55961
   Copy OK

No errors occured


End of status report
====================
EAC extraction logfile from 4. February 2001, 11:22 for CD
SCI 10/9/99 Disc 2

Used drive  : KENWOOD CD-ROM UCR-421   Adapter: 1  ID: 0  LUN: 0
Read mode   : Secure with NO C2, accurate stream, disable cache
Read offset : 0
Overread into Lead-In and Lead-Out : No

Used output format : Internal WAV Routines
                     44.100 Hz; 16 Bit; Stereo

Other options      :
    Fill up missing offset samples with silence : Yes
    Delete leading and trailing silent blocks : No
    Installed external ASPI interface


Track  1
   Filename E:\Temp\sci99-10-09d2t01.wav

   Peak level 93.7 %
   Track quality 99.8 %
   Test CRC 5370FA91
   Copy CRC 5370FA91
   Copy OK

Track  2
   Filename E:\Temp\sci99-10-09d2t02.wav

   Peak level 82.3 %
   Track quality 99.8 %
   Test CRC B47A341E
   Copy CRC B47A341E
   Copy OK

Track  3
   Filename E:\Temp\sci99-10-09d2t03.wav

   Peak level 93.7 %
   Track quality 99.8 %
   Test CRC C5A0D58E
   Copy CRC C5A0D58E
   Copy OK

No errors occured


End of status report
====================
EAC extraction logfile from 4. February 2001, 11:47 for CD
SCI 10/9/99 Disc3

Used drive  : KENWOOD CD-ROM UCR-421   Adapter: 1  ID: 0  LUN: 0
Read mode   : Secure with NO C2, accurate stream, disable cache
Read offset : 0
Overread into Lead-In and Lead-Out : No

Used output format : Internal WAV Routines
                     44.100 Hz; 16 Bit; Stereo

Other options      :
    Fill up missing offset samples with silence : Yes
    Delete leading and trailing silent blocks : No
    Installed external ASPI interface


Track  1
   Filename E:\Temp\sci99-10-09d3t01.wav

   Peak level 91.7 %
   Track quality 99.9 %
   Test CRC D5747205
   Copy CRC D5747205
   Copy OK

Track  2
   Filename E:\Temp\sci99-10-09d3t02.wav

   Peak level 91.2 %
   Track quality 99.8 %
   Test CRC 9C5111E1
   Copy CRC 9C5111E1
   Copy OK

Track  3
   Filename E:\Temp\sci99-10-09d3t03.wav

   Peak level 94.2 %
   Track quality 99.8 %
   Test CRC CA08B62A
   Copy CRC CA08B62A
   Copy OK

No errors occured


End of status report

Show Checksums
d1
6a715b2c97895726259486688b18ad90 *sci99-10-09d1t06.shn
f49446ae38bcf4f5e1b0d5d14ac27be4 *sci99-10-09d1t02.shn
3313c9e38d09fcb70999359f62653e78 *sci99-10-09d1t03.shn
910e228d078fccec39f02e09f19572f1 *sci99-10-09d1t04.shn
6a30351271e24fc7edf0fb9002afbd01 *sci99-10-09d1t05.shn
fdd2fdcad0ac669b384d66792288d018 *sci99-10-09d1t01.shn
7a1faca4a67fceb8ed735a4499ad20ae *sci99-10-09d1t07.shn
d2
bda503c574f07588d600099aa22f23c6 *sci99-10-09d2t02.shn
4baa71a4f05c69a5288fee13acad1116 *sci99-10-09d2t01.shn
42cede5425ca7ece394cc748baf21d83 *sci99-10-09d2t03.shn
d3
2a9120799071443c320eea7f5719675c *sci99-10-09d3t02.shn
c0d87e7b6056cbb9329dd2b849c9a228 *sci99-10-09d3t01.shn
817cdc4a0ce44c0aa64dc3f44614fded *sci99-10-09d3t03.shn

Comments
Add Comment
Date User Comment