Browse Collections Artists Sources   Search Dates

Add Show    List Management    Help


Phish 07/10/00
Deer Creek Music Center, Noblesville, IN
Comments Add Comment    Source Collectors    Add to Collection    Add to Want List    History
Source # 30096 Other Sources
Entered by Ben Mohr
Checksums all_ffp
Disc Counts 2 / 3
Media Size
Date Circulated
Date Added
07/14/05
07/19/2005
Source Summary SBD/AUD Matrix > DAT @48kHz; CDR > EAC > FLAC 
Source Information - Download Text | Download Zip
Phish
July 10, 2000
Deer Creek Amphitheater - Noblesville, IN

Source: SBD/AUD Matrix>DAT(@48Khz)>HD>CD>EAC>Edit>FLAC16
EAC done using PLextor PXW2410A in secure mode, offset corrected.
All extraction done with 100% track quality.
Patch source: OTS Schoeps CMC6/mk41 (Split 20') > Apogee AD-1000 > DA-P1 > D8
Patch Conversion: D8 > CMI8738 SPDIF (44.1k) > WAV > CDWAV > SHN (no DAE)

Edit: Jibboo starts 04:25 into the song on the SBD version. The patch source
was added and cross-faded using Vegas 3.0. Cross-fade occurs from 04:25-04:35.

Disc 1
Set 1
01. Cars Trucks Buses->
02. Wilson->
03. It's Ice
04. Bathtub Gin
05. Buffalo Bill*
06. My Mind's Got A Mind Of It's Own
07. Split Open And Melt
08. Sparkle->
09. Funky Bitch
10. David Bowie

Disc 2
Set 2
01. Gotta Jibboo**
02. Sand***
03. Twist#
04. Fee->
05. What's The Use
06. Limb By Limb
07. Loving Cup

Disc 3
Encore:
01. Run Like An Antelope

* - Marshmallow War
** - Glowstick War
*** - Trey on Keys
# - Original Arrangment

Flac Fingerprint:
ph2000-07-10d1t01.flac:5878a72663de09eadc8027c28529d39e
ph2000-07-10d1t02.flac:baf010a54b937d31b77f2f698bf716b3
ph2000-07-10d1t03.flac:49b8a708bd281f31502b86076ce748b0
ph2000-07-10d1t04.flac:bb550cf100dd6bd3cebffa7201aad4db
ph2000-07-10d1t05.flac:f4f63423a6a5ebe5e92964736894f5fa
ph2000-07-10d1t06.flac:8803092291aa57aa85a42e959ebc6a31
ph2000-07-10d1t07.flac:787689f1cdd9c0c3acc5785a7bea7a1b
ph2000-07-10d1t08.flac:937eabffdcfded07172a5132800258fd
ph2000-07-10d1t09.flac:14067d9bf1fcba24b1da4d59b89c6ec6
ph2000-07-10d1t10.flac:41a2a1eb69fbe53983606241df53a733
ph2000-07-10d2t01.flac:838351a1189019ac817c0253a75683fa
ph2000-07-10d2t02.flac:d607ded1023a8f003a9f831f246cf30c
ph2000-07-10d2t03.flac:c829e74df44b24f588437f5463ccce7a
ph2000-07-10d2t04.flac:35b3dcda85bfee09f6aca251818eae99
ph2000-07-10d2t05.flac:ad0370bb0a52699a1f47171cba3c92f0
ph2000-07-10d2t06.flac:15ef26566eec6602d856e146cda7e20b
ph2000-07-10d2t07.flac:70232c4abb11f75f1368022b120cc934
ph2000-07-10d3t01.flac:d310230673ee3f7c4e1f3d34490a4532

Shntool Output:
    length     expanded size   cdr  WAVE problems filename
     4:44.25       50156444    ---   --   ---xx   ph2000-07-10d1t01.flac
     7:13.21       76430636    ---   --   ---xx   ph2000-07-10d1t02.flac
     7:26.57       78808508    ---   --   ---xx   ph2000-07-10d1t03.flac
    16:56.74      179396492    ---   --   ---xx   ph2000-07-10d1t04.flac
     2:19.06       24533756    ---   --   ---xx   ph2000-07-10d1t05.flac
     3:50.10       40595564    ---   --   ---xx   ph2000-07-10d1t06.flac
     9:53.74      104779292    ---   --   ---xx   ph2000-07-10d1t07.flac
     3:49.17       40435628    ---   --   ---xx   ph2000-07-10d1t08.flac
     6:39.06       70397756    ---   --   ---xx   ph2000-07-10d1t09.flac
    14:48.31      156716156    ---   --   ---xx   ph2000-07-10d1t10.flac
    10:36.00      112190444    ---   --   ---xx   ph2000-07-10d2t01.flac
    16:38.12      176075468    ---   --   ---xx   ph2000-07-10d2t02.flac
     8:57.66       94882076    ---   --   ---xx   ph2000-07-10d2t03.flac
     7:45.13       82056620    ---   --   ---xx   ph2000-07-10d2t04.flac
     7:34.02       80090348    ---   --   ---xx   ph2000-07-10d2t05.flac
     9:01.66       95587676    ---   --   ---xx   ph2000-07-10d2t06.flac
     9:21.26       99021596    ---   --   ---xx   ph2000-07-10d2t07.flac
    12:10.70      128936684    ---   --   ---xx   ph2000-07-10d3t01.flac
   159:46.51     1691091144 B                     (totals for 18 files, 0.5428 overall compression ratio)


Show Checksums
all_ffp
ph2000-07-10d1t01.flac:5878a72663de09eadc8027c28529d39e
ph2000-07-10d1t02.flac:baf010a54b937d31b77f2f698bf716b3
ph2000-07-10d1t03.flac:49b8a708bd281f31502b86076ce748b0
ph2000-07-10d1t04.flac:bb550cf100dd6bd3cebffa7201aad4db
ph2000-07-10d1t05.flac:f4f63423a6a5ebe5e92964736894f5fa
ph2000-07-10d1t06.flac:8803092291aa57aa85a42e959ebc6a31
ph2000-07-10d1t07.flac:787689f1cdd9c0c3acc5785a7bea7a1b
ph2000-07-10d1t08.flac:937eabffdcfded07172a5132800258fd
ph2000-07-10d1t09.flac:14067d9bf1fcba24b1da4d59b89c6ec6
ph2000-07-10d1t10.flac:41a2a1eb69fbe53983606241df53a733
ph2000-07-10d2t01.flac:838351a1189019ac817c0253a75683fa
ph2000-07-10d2t02.flac:d607ded1023a8f003a9f831f246cf30c
ph2000-07-10d2t03.flac:c829e74df44b24f588437f5463ccce7a
ph2000-07-10d2t04.flac:35b3dcda85bfee09f6aca251818eae99
ph2000-07-10d2t05.flac:ad0370bb0a52699a1f47171cba3c92f0
ph2000-07-10d2t06.flac:15ef26566eec6602d856e146cda7e20b
ph2000-07-10d2t07.flac:70232c4abb11f75f1368022b120cc934
ph2000-07-10d3t01.flac:d310230673ee3f7c4e1f3d34490a4532

Comments
Add Comment
Other Sources (comments)
Schoeps CMC641 (Split 20')... (3) Microtech Geffel M200s... (0) AKG 480/ck63 > Graham... (0) B+K 4011 (dfc, 1st row... (0) Schoeps cmc6/mk4v > Lunatec... (0) AKG ck61/480 > Graham... (0) SBD/AUD Matrix>DAT(@48Khz);... (1) flac16; (20' split)... (0) flac16 48khz ... (0)
Date User Comment
01/09/2009 glenesis I wouldn't call this a matrix. This is a DSBD, with an AUD patch at the top of Jiboo. It's a GORGEOUS DSBD, at that! And the audience patch is pretty sweet, too!
03/28/2012 TWATTS I have a second source, with this text file:

------
Phish
Deer Creek
7-10-00 & soundcheck

Source:SBD/AUD Matrix>DAT(@48Khz)>HD>CD>EAC>Edit>FLAC16
EAC done using PLextor PXW2410A in secure mode, offset corrected.
All extraction done with 100% track quality.
Patch source: OTS Schoeps CMC6/mk41 (Split 20') > Apogee AD-1000 > DA-P1 > D8
Patch Conversion: D8 > CMI8738 SPDIF (44.1k) > WAV > CDWAV > SHN (no DAE)

POST-CONVERSION EDITING
SHN > WAV > Soundforge 8.0 Graphic Equalizer > WAV > FLAC level 8 (Mike Kerfeld, [email protected])

Edit: Jibboo starts 04:25 into the song on the SBD version. The patch source
was added and cross-faded using Vegas 3.0. Cross-fade occurs from 04:25-04:35.

Disc 1
Set 1
01. Cars Trucks Buses->
02. Wilson->
03. It's Ice
04. Bathtub Gin
05. Buffalo Bill*
06. My Mind's Got A Mind Of It's Own
07. Split Open And Melt
08. Sparkle->
09. Funky Bitch
10. David Bowie

Disc 2
Set 2
01. Gotta Jibboo**
02. Sand***
03. Twist#
04. Fee->
05. What's The Use
06. Limb By Limb
07. Loving Cup

Disc 3
Encore:
01. Run Like An Antelope

* - Marshmallow War
** - Glowstick War
*** - Trey on Keys
# - Original Arrangment

------
And this FFP:

ph000710d3t01_Run_Like_An_Antelope.flac:5b70e130644e89f74bcb4569f4ff936a
ph000710d1_01_Cars_Trucks_Buses.flac:c3c2b66c38e9717b7590b560f5d2feab
ph000710d1_02_Wilson.flac:edb7528edd62543c9eeb1a3bae1c6b7f
ph000710d1_03_It's_Ice.flac:7f48ddd125d785bbe918cc41ed6b79ed
ph000710d1_04_Bathtub_Gin.flac:e38b1594831e55bf95c1f035bb1651a9
ph000710d1_05_Buffalo_Bill.flac:c95ac95af5065b7e71c66fbda32a8fde
ph000710d1_06_My_Mind's_Got_A_Mind_Of_Its_Own.flac:9b1d69adacc8069a0fdd2a88720e5763
ph000710d1_07_Split_Open_And_Melt.flac:a0b8ab07326d9363779c7942ada88f77
ph000710d1_08_Sparkle.flac:651270aa4067cd8686ac31f91685b567
ph000710d1_09_Funky_Bitch.flac:573c88bf07e28fab4c223c98e2bb5030
ph000710d1_10_David_Bowie.flac:debd62a962226ce35f51c52d753ef4aa
ph000710d2t01_Gotta_Jiboo.flac:b29fddf1919b1b064669e77fe6a0f735
ph000710d2t02_Sand.flac:a79501bcfa06cecc098b01b673794bc4
ph000710d2t03_Twist.flac:560293ef66bb71828560ddd9a67f5b12
ph000710d2t04_Fee.flac:895046fd7f82a5ee4326687101891fc3
ph000710d2t05_What's_The_Use.flac:860a07cbbcdc276f796fa0a7f319a95b
ph000710d2t06_Limb_By_Limb.flac:8675f8afef54f183337bcec41977768e
ph000710d2t07_Loving_Cup.flac:13ea035ede87eab14b3bf2ba0174ccb8
------

It came with the Soundcheck that is listed here: http://db.etree.org/shn/101191

Terry