Browse Collections Artists Sources   Search Dates

Add Show    List Management    Help


String Cheese Incident 08/11/96
Grand Targhee Resort, Alta, WY
Comments Add Comment    Source Collectors    Add to Collection    Add to Want List    History
Source # 3255 Other Sources
Entered by Brad Leblanc
Checksums d1 , d2
Disc Counts 2 / 2
Media Size
Date Circulated
Date Added
3/16/01
01/15/2002
Source Summary DSBD > DAT > CD; Conversion: CD > Kenwood TrueX > EAC > .shn V3 (seekable) 
Source Information - Download Text | Download Zip
8/11/1996
Grand Targhee Bluegrass Festival
Grand Targhee, WY

Source: DSBD>DAT>CD
Conversion:  CD>Kenwood TrueX>EAC>shn V3 (seekable)

Seed: Brian Cole [email protected]oo.com  3/16/01

DISC 1
1.  Intro
2.  John Hardy
3.  Big Scotia
4.  Handsome Molly > Jam >
5.  Elvis's Wild Ride
6.  Unconditional Love
7.  Chili Dawg*
8.  Rocky Road Blues
9.  Eat My Dust
10. San Jose

DISC 2
1.  How Mountain Girls Can Love
2.  Lester Had A Coconut
3.  High On A Mountaintop**
4.  Lonesome Fiddle Blues*#
5.  When I Will#
6.  Mind Your Own Business
7.  Moonflower
8.  Bigger Isn't Better $
9.  Whiskey Before Breakfast @


SHOW NOTES:
*  = w/Matt Flinner on Mandolin
** = w/Judith Edelman
#  = w/Brent Boyer on Trumpet


SEED NOTES:
@ = Song cuts at end.  Added fade
$ = Take me out to the ballgame following Bigger Isn't Better


Enjoy!

-Brian

=================
EAC extraction logfile from 16. March 2001, 8:53 for sci1996-08-11d1
Unknown Artist / Unknown Title

Used drive  : KENWOOD CD-ROM UCR-421   Adapter: 1  ID: 0  LUN: 0
Read mode   : Secure with NO C2, accurate stream, disable cache
Read offset : 0
Overread into Lead-In and Lead-Out : No

Used output format : Internal WAV Routines
                     44.100 Hz; 16 Bit; Stereo

Other options      :
    Fill up missing offset samples with silence : Yes
    Delete leading and trailing silent blocks : No
    Installed external ASPI interface


Track  1
   Filename E:\Temp\sci96-08-11d1t01.wav

   Peak level 6.2 %
   Track quality 99.1 %
   Test CRC 60BD82C8
   Copy CRC 60BD82C8
   Copy OK

Track  2
   Filename E:\Temp\sci96-08-11d1t02.wav

   Peak level 57.1 %
   Track quality 99.9 %
   Test CRC 48C5B785
   Copy CRC 48C5B785
   Copy OK

Track  3
   Filename E:\Temp\sci96-08-11d1t03.wav

   Peak level 84.0 %
   Track quality 99.7 %
   Test CRC 437B44E3
   Copy CRC 437B44E3
   Copy OK

Track  4
   Filename E:\Temp\sci96-08-11d1t04.wav

   Peak level 87.6 %
   Track quality 99.8 %
   Test CRC 241342C6
   Copy CRC 241342C6
   Copy OK

Track  5
   Filename E:\Temp\sci96-08-11d1t05.wav

   Peak level 60.3 %
   Track quality 100.0 %
   Test CRC 59BCBC4D
   Copy CRC 59BCBC4D
   Copy OK

Track  6
   Filename E:\Temp\sci96-08-11d1t06.wav

   Peak level 87.1 %
   Track quality 99.8 %
   Test CRC F0159C97
   Copy CRC F0159C97
   Copy OK

Track  7
   Filename E:\Temp\sci96-08-11d1t07.wav

   Peak level 93.8 %
   Track quality 99.9 %
   Test CRC 367BD16E
   Copy CRC 367BD16E
   Copy OK

Track  8
   Filename E:\Temp\sci96-08-11d1t08.wav

   Peak level 63.4 %
   Track quality 99.8 %
   Test CRC D72B72C3
   Copy CRC D72B72C3
   Copy OK

Track  9
   Filename E:\Temp\sci96-08-11d1t09.wav

   Peak level 100.0 %
   Track quality 99.8 %
   Test CRC 5D533B7F
   Copy CRC 5D533B7F
   Copy OK

Track 10
   Filename E:\Temp\sci96-08-11d1t10.wav

   Peak level 83.5 %
   Track quality 99.8 %
   Test CRC CF51097E
   Copy CRC CF51097E
   Copy OK

No errors occured


End of status report
================
EAC extraction logfile from 16. March 2001, 9:25 for sci1996-08-11d2
Unknown Artist / Unknown Title

Used drive  : KENWOOD CD-ROM UCR-421   Adapter: 1  ID: 0  LUN: 0
Read mode   : Secure with NO C2, accurate stream, disable cache
Read offset : 0
Overread into Lead-In and Lead-Out : No

Used output format : Internal WAV Routines
                     44.100 Hz; 16 Bit; Stereo

Other options      :
    Fill up missing offset samples with silence : Yes
    Delete leading and trailing silent blocks : No
    Installed external ASPI interface


Track  1
   Filename E:\Temp\sci96-08-11d2t01.wav

   Peak level 68.9 %
   Track quality 99.8 %
   Test CRC FE0751DF
   Copy CRC FE0751DF
   Copy OK

Track  2
   Filename E:\Temp\sci96-08-11d2t02.wav

   Peak level 72.4 %
   Track quality 99.9 %
   Test CRC 3335D03C
   Copy CRC 3335D03C
   Copy OK

Track  3
   Filename E:\Temp\sci96-08-11d2t03.wav

   Peak level 67.5 %
   Track quality 99.6 %
   Test CRC BBC8C373
   Copy CRC BBC8C373
   Copy OK

Track  4
   Filename E:\Temp\sci96-08-11d2t04.wav

   Peak level 90.4 %
   Track quality 99.8 %
   Test CRC 55251026
   Copy CRC 55251026
   Copy OK

Track  5
   Filename E:\Temp\sci96-08-11d2t05.wav

   Peak level 71.6 %
   Track quality 99.8 %
   Test CRC 527D0998
   Copy CRC 527D0998
   Copy OK

Track  6
   Filename E:\Temp\sci96-08-11d2t06.wav

   Peak level 51.8 %
   Track quality 99.9 %
   Test CRC DB216FD5
   Copy CRC DB216FD5
   Copy OK

Track  7
   Filename E:\Temp\sci96-08-11d2t07.wav

   Peak level 62.7 %
   Track quality 99.7 %
   Test CRC 1BA3249E
   Copy CRC 1BA3249E
   Copy OK

Track  8
   Filename E:\Temp\sci96-08-11d2t08.wav

   Peak level 62.1 %
   Track quality 99.7 %
   Test CRC 327A51B6
   Copy CRC 327A51B6
   Copy OK

Track  9
   Filename E:\Temp\sci96-08-11d2t09.wav

   Peak level 46.6 %
   Track quality 99.5 %
   Test CRC 8E104BE1
   Copy CRC 8E104BE1
   Copy OK

Track 10
   Filename E:\Temp\sci96-08-11d2t10.wav

   Peak level 90.4 %
   Track quality 99.8 %
   Test CRC 3CD1EE55
   Copy CRC 3CD1EE55
   Copy OK

No errors occured


End of status report
Show Checksums
d1
228dd57f4208ec489aa6c3173529d626 *sci96-08-11d1t09.shn
88ce49554fea5a89dcd51f2b3b430cf2 *sci96-08-11d1t02.shn
e2ac27414ef5593552a731b8b9021631 *sci96-08-11d1t03.shn
c1ccaf873e8423c31e51c1c0d0d58a19 *sci96-08-11d1t04.shn
0386b810617751b9d0435712871fbe9d *sci96-08-11d1t05.shn
33a9b4c828ae6357974b3b4ae9d11ecc *sci96-08-11d1t06.shn
b2c4556a619c21d64a0a8330d8a0497f *sci96-08-11d1t07.shn
d96512075715ed05cf3a8676b65baf46 *sci96-08-11d1t08.shn
563ecfdb6a9dab687540851f602a6dd6 *sci96-08-11d1t01.shn
e8895aaa603dd5f4500af643c69c3d4d *sci96-08-11d1t10.shn
d2
ca8aa5d682310164dc9a7049536498a4 *sci96-08-11d2t08.shn
ec6116761288e7eb55f1450131ec8471 *sci96-08-11d2t02.shn
4d69328fabc67dba477b3c366e03913a *sci96-08-11d2t03.shn
e3248e7a8d36c63c0934bea66b84a560 *sci96-08-11d2t04.shn
0866a852d4c815a9f596e74d0149915a *sci96-08-11d2t05.shn
38c97cf4f7ec4161484d9c7d36cb28a4 *sci96-08-11d2t06.shn
343328860c59c883c152d7ac807d1ed4 *sci96-08-11d2t07.shn
ab37b151268280b78a4299a1f2d58c6b *sci96-08-11d2t01.shn
76c79e1baa19c7168be85dc8e797de4d *sci96-08-11d2t09.shn

Comments
Add Comment
Other Sources (comments)
sci96-08-11.sbd (0)
Date User Comment