Browse Collections Artists Sources   Search Dates

Add Show    List Management    Help


Garcia 01/13/94
Warfield Theater, San Francisco, CA
Comments Add Comment    Source Collectors    Add to Collection    Add to Want List    History
Source # 32833 Other Sources
Entered by Matt Vernon
Checksums ffp , md5
Disc Counts 1 / 2
Media Size
Date Circulated
Date Added
03/11/2006
03/20/2006
Source Summary Garcia & Grisman: Digitial FOB Audience Tape Nuemann km 54's > Teac > DAT(x) DAT from Todd Evans DAT(x) > TASCAM DA-20 > M-Audio FireWire solo > Soundforge 8.0 wav 48khz WAV > Flac16/48. 
Source Information - Download Text | Download Zip
Jerry Garica & David Grisman
January 13, 1994
Warfield Theater
San Francisco, CA

Digitial FOB Audience Tape
Nuemann km 54's > Teac > DAT(x)

DAT from Todd Evans
DAT(x) > TASCAM DA-20 > M-Audio FireWire solo > Soundforge 8.0 wav 48khz

48khz WAV > Flac16/48
by [email protected]
Transferand seeded March 2006

Set List:
1.  /Shady Grove
2.  Long Black Veil
3.  Rosalie McFall
4.  Dawg's Waltz
5.  Freight Train
6.  Hot Corn, Cold Corn
7.  Red Rockin' Chair Blues
8.  Grateful Dawg

Duets:
9.  I'm Troubled
10. Ballad of Casey Jones
11. There Ain't No Bugs On Me
12. applause/band intros

Band:
13. So What
14. Old Rocking Chair
15. Stealin
16. Poison Glass of Wine
17. Drink Up and Go Home
18. Arabia


Notes:  This is the same source as this: http://db.etree.org/shninfo_detail.php?shnid=30692.  This is an excellent sounding audience recording.  However, this is fresh transfer from Todd Evans' DAT.  This is currently seeded *only* at 48khz since the other source is widely circulated and is otherwise fine.  

Problems:
Shady Grove cuts in.  Levels in set 2 were very low and were raised to match the first set. Applause in set 2 was also reduced to match music. Taper can be heard breathing on and adjusting the microphones at various points.

-----------------------------------------------------------------------------------

These files cannot be burned and played on regular CDs!
The files can be played via computer or burned to DVD-Audio with a program such as DVD Audiofile:
http://crush.epix.net/~scb/index.php?sort=type&path=dvd-audiofile/

To do this you need a DVD player that playes DVD-Audio discs.
1) drag these flac files direcly into the main grid
2) hit the create .iso button
3) delete the audio_ts and video_ts folders
4) use a DVD burning program like Nero to burn the iso image to a DVD disc.

makes a gapless disc to play at full resolution!

    length     expanded size   cdr  WAVE problems filename
     3:35.147      41308204    cxx   --   ---xx   jgdg1994-01-13.48khz.d1t01.flac
     5:50.773      67348524    cxx   --   ---xx   jgdg1994-01-13.48khz.d1t02.flac
     3:59.053      45898284    cxx   --   ---xx   jgdg1994-01-13.48khz.d1t03.flac
     5:11.280      59765804    cxx   --   ---xx   jgdg1994-01-13.48khz.d1t04.flac
     5:14.120      60311084    cxx   --   ---xx   jgdg1994-01-13.48khz.d1t05.flac
     4:37.467      53273644    cxx   --   ---xx   jgdg1994-01-13.48khz.d1t06.flac
     3:44.840      43169324    cxx   --   ---xx   jgdg1994-01-13.48khz.d1t07.flac
     3:32.667      40832044    cxx   --   ---xx   jgdg1994-01-13.48khz.d1t08.flac
     4:28.227      51499564    cxx   --   ---xx   jgdg1994-01-13.48khz.d1t09.flac
     4:59.480      57500204    cxx   --   ---xx   jgdg1994-01-13.48khz.d1t10.flac
     4:39.453      53655084    cxx   --   ---xx   jgdg1994-01-13.48khz.d1t11.flac
     0:53.000      10176044    cxx   --   ---xx   jgdg1994-01-13.48khz.d1t12.flac
    10:16.240     118318124    cxx   --   ---xx   jgdg1994-01-13.48khz.d1t13.flac
     8:49.120     101591084    cxx   --   ---xx   jgdg1994-01-13.48khz.d1t14.flac
     4:21.893      50283564    cxx   --   ---xx   jgdg1994-01-13.48khz.d1t15.flac
     3:57.760      45649964    cxx   --   ---xx   jgdg1994-01-13.48khz.d1t16.flac
     3:07.093      35921964    cxx   --   ---xx   jgdg1994-01-13.48khz.d1t17.flac
    19:03.647     219580300    cxx   --   ---xx   jgdg1994-01-13.48khz.d1t18.flac
   100:21.260    1156082808 B                     (totals for 18 files, 0.5348 overall compression ratio)
Show Checksums
ffp
jgdg1994-01-13.48khz.d1t01.flac:18b70b263b4fe3781c003173c5d220c2
jgdg1994-01-13.48khz.d1t02.flac:6ef3f677271d729d2f05ec30420a8a3a
jgdg1994-01-13.48khz.d1t03.flac:e94dbdd44e620d54e4810a3873d85a2a
jgdg1994-01-13.48khz.d1t04.flac:69608c569cc9399df98c6cb36ed2a4cd
jgdg1994-01-13.48khz.d1t05.flac:19ac2b18328a1d055d4c1dc973e998ac
jgdg1994-01-13.48khz.d1t06.flac:a0f7ef276a8dedbe59e7d923220b2706
jgdg1994-01-13.48khz.d1t07.flac:548a04e2457c1366221032ebe6a10808
jgdg1994-01-13.48khz.d1t08.flac:32f144c2ab3023e0c80e11e96f80be67
jgdg1994-01-13.48khz.d1t09.flac:03bff48c33ba82766071fd509354614d
jgdg1994-01-13.48khz.d1t10.flac:f939032d19479ef89f7ada27387f9879
jgdg1994-01-13.48khz.d1t11.flac:d7f5a07ea5c7ec0fc2e8d59f37379255
jgdg1994-01-13.48khz.d1t12.flac:65982b7ff1e245337bd666d20f910da1
jgdg1994-01-13.48khz.d1t13.flac:cda7108d58383832554cdcf435391e16
jgdg1994-01-13.48khz.d1t14.flac:9e7a7dcbfe91d97483cc9cc4ed715b40
jgdg1994-01-13.48khz.d1t15.flac:17cea7884f5172f15aa1f8f629ffa61d
jgdg1994-01-13.48khz.d1t16.flac:0cbeeeb6f10a9f420ba016d0b618d17c
jgdg1994-01-13.48khz.d1t17.flac:e5baee619efbe9b06325dd27e4de0279
jgdg1994-01-13.48khz.d1t18.flac:79be4f874e81c02d323fb90914b9282e
md5
d04cf8be074815b509c6d9f169d8079c *jgdg1994-01-13.48khz.d1t01.flac
c1d22d8e0547b0341c1ef1e3eb0e0f52 *jgdg1994-01-13.48khz.d1t02.flac
12f0d3fd562b3d566195295134841a27 *jgdg1994-01-13.48khz.d1t03.flac
4aba908da10d2e02e30b53e5084aa32c *jgdg1994-01-13.48khz.d1t04.flac
94f3db37433e03a107564285baaf6879 *jgdg1994-01-13.48khz.d1t05.flac
2783f45d4ab16cb2ed96255567f5b27d *jgdg1994-01-13.48khz.d1t06.flac
f8136a543754e85fc5096b1abfd40e1f *jgdg1994-01-13.48khz.d1t07.flac
35f5159e391fc40fc01632e2fb8838af *jgdg1994-01-13.48khz.d1t08.flac
b33d67d1e2bbb1583e4bf2d13b9fcd67 *jgdg1994-01-13.48khz.d1t09.flac
26df412ab5dca4c72dc0904d9ab9e753 *jgdg1994-01-13.48khz.d1t10.flac
ec20d5fb2d9276fe695be779c4cfe7f5 *jgdg1994-01-13.48khz.d1t11.flac
ea418c6aa4d7528d9c0e912bd4db0e1b *jgdg1994-01-13.48khz.d1t12.flac
aaeb57e3c36e0ee4ca49a564099b1f55 *jgdg1994-01-13.48khz.d1t13.flac
9142dad7d76d7e6cfac2430fe29a6718 *jgdg1994-01-13.48khz.d1t14.flac
aa602c42809c1d047ee6eca70530edc5 *jgdg1994-01-13.48khz.d1t15.flac
5311f557f1244f95affdf1710af6272d *jgdg1994-01-13.48khz.d1t16.flac
5e24a7a101e9aeb4ce31a16470c1308b *jgdg1994-01-13.48khz.d1t17.flac
2fe9c8a5c1ff45a0bce8c14b39e747c2 *jgdg1994-01-13.48khz.d1t18.flac

Comments
Add Comment
Other Sources (comments)
Garcia & Grisman: MAD... (0) Garcia & Grisman: Same as... (0) Garcia & Grisman: Digitial... (0) Garcia & Grisman... (0) Garcia & Grisman:... (0)
Date User Comment