Browse Collections Artists Sources   Search Dates

Add Show    List Management    Help


Ratdog 03/25/06
The Electric Factory, Philadelphia, PA
Comments Add Comment    Source Collectors    Add to Collection    Add to Want List    History
Source # 33546 Other Sources
Entered by Ryan Burns
Checksums MD5.flac , .ffp
Disc Counts 2 / 3
Media Size
Date Circulated
Date Added
03/31/2006
03/31/2006
Source Summary Source: Neumann SKM 184's {NOS (30cm)} > Lunatec V3 (44.1) Optical Mod > JB3 (16/44.1); Location : Clamped to Right Center Rail of the VIP section above the SBD, Left Center. 14 Feet Tall; Taped and transferred and tracked by Larry-FLDEADHEAD; Lineage: JB3 > Creative Play Center > CD Wave Editor > CDR > EAC > Win XP Pro > Flac Frontend > FLAC16. Files encoded @ level 6. Sector boundaries verified with TLH; EAC, conversion and seeding to bt.etree.org by Alex Ford 
Source Information - Download Text | Download Zip
Ratdog
3/25/2006 (Saturday)
Electric Factory
Philadelphia, PA

Source: Neumann SKM 184's {NOS (30cm)} > Lunatec V3 (44.1) Optical Mod > JB3 (16/44.1)

Location : Clamped to Right Center Rail of the VIP section above the SBD, Left Center. 14 Feet Tall

Taped and transferred and tracked by Larry-FLDEADHEAD

Lineage: JB3 > Creative Play Center > CD Wave Editor > CDR > EAC > Win XP Pro > Flac Frontend > FLAC16.
Files encoded @ level 6. Sector boundaries verified with TLH.
EAC, conversion and seeding to bt.etree.org by Alex Ford


Disc 01 Set I:

01. Crowd
02. Jam >
03. Truckin' >
04. Brown-Eyed Women,
05. Josephine >
06. Truckin' Jam >
07. Josephine >
08. Row Jimmy,
09. It's All Over Now >
10. She Says >
11. Liberty >
12. Truckin' Jam >
13. Deal

Disc 02 Set II:

01. [email protected],
02. Friend Of The [email protected],
03. A Hard Rain's Gonna [email protected],
04. Jam >
05. Silvio > Tequila > Silvio > Tequila > Silvio >
06. Althea >
07. Lady with A Fan > Terrapin Station >

Disc 03 (Set II cont):

01. Stuff >
02. Dear Prudence >
03. One More Saturday Night
Encore:
04. A-11,
05. Touch Of Grey


Notes:
- A sweet recording! Thank you Larry!
- @ = acoustic
- "Bon voyage Buck [Owens]" before A-11;
  - Stuff - Jeff/Jay/Robin/Mark/Kenny > Jay > Jeff/Jay/Kenny > Jeff/Jay/Kenny/MK
  - First "A-11"
- (Kenny Brooks's 400th Show)


Shntool Output:

      length     expanded size   cdr  WAVE problems filename
     0:29.58        5252060    ---   --   -----    rd2006-03-25d1t01.wav
     4:45.16       50311676    ---   --   -----   rd2006-03-25d1t02.wav
     9:06.03       96321500    ---   --   -----   rd2006-03-25d1t03.wav
     5:43.68       60665180    ---   --   -----   rd2006-03-25d1t04.wav
     5:44.57       60815708    ---   --   -----   rd2006-03-25d1t05.wav
     2:41.11       28426316    ---   --   -----   rd2006-03-25d1t06.wav
     1:07.61       11962316    ---   --   -----   rd2006-03-25d1t07.wav
    10:02.74      106366892    ---   --   -----  rd2006-03-25d1t08.wav
     7:16.02       76915148    ---   --   -----   rd2006-03-25d1t09.wav
     8:27.17       89474828    ---   --   -----   rd2006-03-25d1t10.wav
     6:51.63       72648620    ---   --   -----   rd2006-03-25d1t11.wav
     2:48.58       29771660    ---   --   -----   rd2006-03-25d1t12.wav
     6:39.62       70529468    ---   --   -----   rd2006-03-25d1t13.wav
     5:24.72       57322988    ---   --   -----   rd2006-03-25d2t01.wav
     6:27.20       68313884    ---   --   -----   rd2006-03-25d2t02.wav
     9:19.53       98732300    ---   --   -----   rd2006-03-25d2t03.wav
     1:35.41       16854476    ---   --   -----   rd2006-03-25d2t04.wav
     5:32.15       58600124    ---   --   -----   rd2006-03-25d2t05.wav
     9:28.07      100211708    ---   --   -----  rd2006-03-25d2t06.wav
    12:59.12      137443868    ---   --   ----- rd2006-03-25d2t07.wav
     4:15.73       45153740    ---   --   -----   rd2006-03-25d3t01.wav
    10:12.00      107956844    ---   --   ----- rd2006-03-25d3t02.wav
     7:18.50       77380844    ---   --   -----   rd2006-03-25d3t03.wav
     4:20.53       45988700    ---   --   -----   rd2006-03-25d3t04.wav
     7:23.44       78248732    ---   --   -----   rd2006-03-25d3t05.wav
   156:03.15     1651669580 B                     (totals for 25 files, 1.0000 overall compression ratio)

MD5:

69c3da3a6b98e286aa523bfa9398aab4 *rd2006-03-25d1t01.flac
519dfed9fb576a68c4470805a4612e8e *rd2006-03-25d1t02.flac
2f03b70a89f105ed1d233bb46d72e01e *rd2006-03-25d1t03.flac
97f0a64bec1b3b9df06822ef423de222 *rd2006-03-25d1t04.flac
e87035aad506751c4a68123f906089eb *rd2006-03-25d1t05.flac
f42ad481ba2a7488264268a401140164 *rd2006-03-25d1t06.flac
b78b8ac9dd2fe21c959e3f45c40b6fb4 *rd2006-03-25d1t07.flac
3d857c0cb2bed38efb0f664b33599f95 *rd2006-03-25d1t08.flac
bf92a2b52feda39c08ed9f0d0ed16606 *rd2006-03-25d1t09.flac
f5dc5228a4610b7bbbad87b38b845277 *rd2006-03-25d1t10.flac
a0db9a9cad44a9e5b78964510a3b67ba *rd2006-03-25d1t11.flac
e86d0e7af8d8b9ed665eabd952948395 *rd2006-03-25d1t12.flac
8dcf7a1ae533b7efd2565cde4771ce39 *rd2006-03-25d1t13.flac
44f04050aaa8857ad1eb825ae631224a *rd2006-03-25d2t01.flac
a8c8ffa91e2f036f5b51544197ef6a3c *rd2006-03-25d2t02.flac
8c24a0c59ac6a79699c61f599d039c9b *rd2006-03-25d2t03.flac
79a1f1e839a5e013600bcc6fccf24784 *rd2006-03-25d2t04.flac
3f3179d690823caccc9ac628bc956d8b *rd2006-03-25d2t05.flac
9ecf789b0284f0ee9edc64b5eee2572a *rd2006-03-25d2t06.flac
b9ef83b98193f10ca45db5c6d27e0fb9 *rd2006-03-25d2t07.flac
cd5626306da1800eb4e5e1daea69a55e *rd2006-03-25d3t01.flac
e1d74aea8efb271716e88a4b531010b1 *rd2006-03-25d3t02.flac
22c604a24e1a111774fe9b7c73e70dbc *rd2006-03-25d3t03.flac
0747d9a9c4e371e608bedc4517431b45 *rd2006-03-25d3t04.flac
6fb5dc766993094e6828ccf68dff8997 *rd2006-03-25d3t05.flac

Flac Fingerprint:

rd2006-03
Show Checksums
MD5.flac
69c3da3a6b98e286aa523bfa9398aab4 *rd2006-03-25d1t01.flac
519dfed9fb576a68c4470805a4612e8e *rd2006-03-25d1t02.flac
2f03b70a89f105ed1d233bb46d72e01e *rd2006-03-25d1t03.flac
97f0a64bec1b3b9df06822ef423de222 *rd2006-03-25d1t04.flac
e87035aad506751c4a68123f906089eb *rd2006-03-25d1t05.flac
f42ad481ba2a7488264268a401140164 *rd2006-03-25d1t06.flac
b78b8ac9dd2fe21c959e3f45c40b6fb4 *rd2006-03-25d1t07.flac
3d857c0cb2bed38efb0f664b33599f95 *rd2006-03-25d1t08.flac
bf92a2b52feda39c08ed9f0d0ed16606 *rd2006-03-25d1t09.flac
f5dc5228a4610b7bbbad87b38b845277 *rd2006-03-25d1t10.flac
a0db9a9cad44a9e5b78964510a3b67ba *rd2006-03-25d1t11.flac
e86d0e7af8d8b9ed665eabd952948395 *rd2006-03-25d1t12.flac
8dcf7a1ae533b7efd2565cde4771ce39 *rd2006-03-25d1t13.flac
44f04050aaa8857ad1eb825ae631224a *rd2006-03-25d2t01.flac
a8c8ffa91e2f036f5b51544197ef6a3c *rd2006-03-25d2t02.flac
8c24a0c59ac6a79699c61f599d039c9b *rd2006-03-25d2t03.flac
79a1f1e839a5e013600bcc6fccf24784 *rd2006-03-25d2t04.flac
3f3179d690823caccc9ac628bc956d8b *rd2006-03-25d2t05.flac
9ecf789b0284f0ee9edc64b5eee2572a *rd2006-03-25d2t06.flac
b9ef83b98193f10ca45db5c6d27e0fb9 *rd2006-03-25d2t07.flac
cd5626306da1800eb4e5e1daea69a55e *rd2006-03-25d3t01.flac
e1d74aea8efb271716e88a4b531010b1 *rd2006-03-25d3t02.flac
22c604a24e1a111774fe9b7c73e70dbc *rd2006-03-25d3t03.flac
0747d9a9c4e371e608bedc4517431b45 *rd2006-03-25d3t04.flac
6fb5dc766993094e6828ccf68dff8997 *rd2006-03-25d3t05.flac
.ffp
rd2006-03-25d1t01.flac:e9870d951b9cdff857ccc6e443e17705
rd2006-03-25d1t02.flac:58d7df7cd70d30e5ce594619dcd7fbba
rd2006-03-25d1t03.flac:211fa479cca5fad9c3545591fc5bfe13
rd2006-03-25d1t04.flac:ea3c27062fb0f9bee849ec6fa50ea75a
rd2006-03-25d1t05.flac:16c4c7d9e2ec23deb566d5307816b49f
rd2006-03-25d1t06.flac:62d52b32404071cd4f1df0d7eeed5742
rd2006-03-25d1t07.flac:ec3e239b3360e141a6e58335b5268815
rd2006-03-25d1t08.flac:caf0a8813e964c17a10aa804433b162b
rd2006-03-25d1t09.flac:1ee6c21200666392b486e1cd71b98290
rd2006-03-25d1t10.flac:bf1d1906125a87321a495e40f19d2b46
rd2006-03-25d1t11.flac:197d0350dcf44dc8f5202a8150db0bd0
rd2006-03-25d1t12.flac:d454fc7604a84bf24d1efe25c75cc895
rd2006-03-25d1t13.flac:20d98cef251614ce8728a45be01ab40f
rd2006-03-25d2t01.flac:83a48e569a9ee5034475946648b10e95
rd2006-03-25d2t02.flac:b3bd1fe14f4402abd10740c1e704105a
rd2006-03-25d2t03.flac:2fad81a438780f610c5b4d030ddbad87
rd2006-03-25d2t04.flac:f32167c23dd8a5c29cf9c8577c24d26e
rd2006-03-25d2t05.flac:79f90ba8942ca718050be58882edb069
rd2006-03-25d2t06.flac:45148682e71f6d988847181269c158f3
rd2006-03-25d2t07.flac:1e7c5bf7f475d2a4bb19dace76854fe4
rd2006-03-25d3t01.flac:424d321df3fe630048f68f9064eb5f68
rd2006-03-25d3t02.flac:8d37c605d3c7b656b6ffc3514ec8a312
rd2006-03-25d3t03.flac:2479f211a5eec236a51c0cc46cb12f42
rd2006-03-25d3t04.flac:b36eb161072158e50acdb23e86dfa1a5
rd2006-03-25d3t05.flac:0603a0988dd4f75b0b7b3594d63c8bef

Comments
Add Comment
Date User Comment