Browse Collections Artists Sources   Search Dates

Add Show    List Management    Help


Ratdog 03/24/06
Electric Factory, Philadelphia, PA
Comments Add Comment    Source Collectors    Add to Collection    Add to Want List    History
Source # 34017 Other Sources
Entered by ziko
Checksums MD5.flac , .ffp
Disc Counts 2 / 3
Media Size
Date Circulated
Date Added
04/02/2006
04/02/2006
Source Summary Neumann SKM 184's {DIN 90* (17cm)} > Lunatec V3 (44.1) Optical Mod > JB3 (16/44.1) - Lineage: JB3 > Creative Play Center > CD Wave Editor > CDR > EAC(no errors) > WinXP Pro > Flac Frontend > FLAC16; Taped, transferred and tracked by Larry-FLDEADHEAD EAC, conversion and seeding to bt.etree.org by Alex Ford 
  Archive
Source Information - Download Text | Download Zip
Ratdog
3/24/2006 (Friday)
Electric Factory
Philadelphia, PA

Source: Neumann SKM 184's {DIN 90* (17cm)} > Lunatec V3 (44.1) Optical Mod > JB3 (16/44.1)

Location : Clamped to Right Center Rail of the VIP section above the SBD, Left Center 14 Feet Tall

Taped, transferred and tracked by Larry-FLDEADHEAD

Lineage: JB3 > Creative Play Center > CD Wave Editor > CDR > EAC(no errors) > WinXP Pro > Flac Frontend > FLAC16.

Files encoded @ level 6. Sector boundaries verified with TLH.
EAC, conversion and seeding to bt.etree.org by Alex Ford


Set I:
d1t01  Crowd/tuning
d1t02  Bertha >
d1t03  Jack Straw >
d1t04  Bird Song >
d1t05  Easy To Slip >
d1t06  Supplication,
d1t07  Lazy River Road,
d1t08  Odessa,
d2t01  Bury Me Standing >
d2t02  West L.A. Fadeaway

Set II:
d2t03  K.C. [email protected],
d2t04  Me and My [email protected],
d2t05  When I Paint My [email protected],
d2t06  Jus' Like Mama Said,
d2t07  China Cat Sunflower >
d2t08  I Know You Rider >
d3t01  Stuff >
d3t02  Sugaree >
d3t03  Bird Song >
d3t04  Two Djinn

Encore:
d3t05  Ripple


Notes:
- Stuff - Jeff/Jay/Mark/Kenny > Jeff/Jay/Mark/Kenny/Robin


Shntool Output:

      length     expanded size   cdr  WAVE problems filename
     0:38.14        6736172    ---   --   -----    rd2006-03-24d1t01.wav
     7:17.35       77169164    ---   --   -----   rd2006-03-24d1t02.wav
     9:04.21       96011036    ---   --   -----   rd2006-03-24d1t03.wav
    11:18.17      119639228    ---   --   ----- rd2006-03-24d1t04.wav
     5:57.69       63137132    ---   --   -----   rd2006-03-24d1t05.wav
     8:37.30       91269404    ---   --   -----   rd2006-03-24d1t06.wav
     8:36.63       91170620    ---   --   -----   rd2006-03-24d1t07.wav
     7:37.20       80661884    ---   --   -----   rd2006-03-24d1t08.wav
    10:57.13      115925420    ---   --   ----- rd2006-03-24d2t01.wav
    11:52.32      125672108    ---   --   ----- rd2006-03-24d2t02.wav
     5:13.18       55255580    ---   --   -----   rd2006-03-24d2t03.wav
     5:26.26       57567596    ---   --   -----   rd2006-03-24d2t04.wav
     6:08.42       65014028    ---   --   -----   rd2006-03-24d2t05.wav
    11:11.64      118514972    ---   --   ----- rd2006-03-24d2t06.wav
     6:41.18       70778780    ---   --   -----   rd2006-03-24d2t07.wav
     8:08.52       86205548    ---   --   -----   rd2006-03-24d2t08.wav
     6:16.10       66349964    ---   --   -----   rd2006-03-24d3t01.wav
    14:52.59      157487612    ---   --   -----  rd2006-03-24d3t02.wav
     4:27.15       47134124    ---   --   -----   rd2006-03-24d3t03.wav
    13:09.08      139198460    ---   --   ----- rd2006-03-24d3t04.wav
     6:01.37       63767468    ---   --   -----   rd2006-03-24d3t05.wav
   169:33.63     1794666300 B                     (totals for 21 files, 1.0000 overall compression ratio)

Flac Fingerprint:

rd2006-03-24d1t01.flac:712ccf9f6e3cdd011f58675cbceb4978
rd2006-03-24d1t02.flac:7deb8f8f71539f50cf1822e0edfbdb37
rd2006-03-24d1t03.flac:2491ad009101a0a2dd89b3681b51b73a
rd2006-03-24d1t04.flac:9b5639193ff6c3c52bc6505ac591360e
rd2006-03-24d1t05.flac:bef7d55eee4635d3cc955b635844c436
rd2006-03-24d1t06.flac:7e136c6da0b99d294343b308cf5502ad
rd2006-03-24d1t07.flac:9a87ac78320d04cd152e02d4c910cc48
rd2006-03-24d1t08.flac:840e6b14bae75efd9a053efbb7032ab3
rd2006-03-24d2t01.flac:be5f13c042bd9f89ef792a8dc7ff1b5d
rd2006-03-24d2t02.flac:7bc38020137966f25a40746b1df00af7
rd2006-03-24d2t03.flac:33e544c75f2333adb243cd028f4deafa
rd2006-03-24d2t04.flac:211bab0d7eb44ac8e2d9d435786fd727
rd2006-03-24d2t05.flac:fae5daf303faa75417abcf537f336064
rd2006-03-24d2t06.flac:11afef404f9b87dd6e0394e21900df2e
rd2006-03-24d2t07.flac:d7b138931e6d35d0b8003b86ddd9cd51
rd2006-03-24d2t08.flac:c70c44eedf2fa44fb2c0ba8e8c6512fd
rd2006-03-24d3t01.flac:b31a541c51322ce037a80b003b45e408
rd2006-03-24d3t02.flac:08fa83795eb4eb1fcbff6058bb64834b
rd2006-03-24d3t03.flac:a377f19c5c3f85434d4e8b3b4a6927a6
rd2006-03-24d3t04.flac:dca2c5ec6e458f53176db3d51198334c
rd2006-03-24d3t05.flac:9a9f26827e7849d377c4b88335d74a54

MD5:

fa3f03338f2be3e2745815b8c71c2a26 *rd2006-03-24d1t01.flac
b196eb805548b66ac9b370be5bb7610c *rd2006-03-24d1t02.flac
8a7a90cf21d19ee7047c7f05adc88970 *rd2006-03-24d1t03.flac
fb7b8f4d009fbde25cd537758dd04575 *rd2006-03-24d1t04.flac
9dc2251955f47589192f5747673a775c *rd2006-03-24d1t05.flac
c2bb0bbc4b4b8910fbeba8103f98efcd *rd2006-03-24d1t06.flac
a1c29e5cb4c32d96951b4249c031d657 *rd2006-03-24d1t07.flac
757c383ecd9c6ec0840250d1ab7fc3b0 *rd2006-03-24d1t08.flac
fde41b98cccb3cc91f0bca7924dedade *rd2006-03-24d2t01.flac
6ee604730a64d923c840f56d20d066ac *rd2006-03-24d2t02.flac
3f9a0652cc522d895c3732bc6284deb6 *rd2006-03-24d2t03.flac
ddc51b9817958a97bd64b8b61bb70eac *rd2006-03-24d2t04.flac
ada263bc09a652918f28afe5a81e31a4 *rd2006-03-24d2t05.flac
e846358bbd57a842ab874a393e070bef *rd2006-03-24d2t06.flac
728
Show Checksums
MD5.flac
fa3f03338f2be3e2745815b8c71c2a26 *rd2006-03-24d1t01.flac
b196eb805548b66ac9b370be5bb7610c *rd2006-03-24d1t02.flac
8a7a90cf21d19ee7047c7f05adc88970 *rd2006-03-24d1t03.flac
fb7b8f4d009fbde25cd537758dd04575 *rd2006-03-24d1t04.flac
9dc2251955f47589192f5747673a775c *rd2006-03-24d1t05.flac
c2bb0bbc4b4b8910fbeba8103f98efcd *rd2006-03-24d1t06.flac
a1c29e5cb4c32d96951b4249c031d657 *rd2006-03-24d1t07.flac
757c383ecd9c6ec0840250d1ab7fc3b0 *rd2006-03-24d1t08.flac
fde41b98cccb3cc91f0bca7924dedade *rd2006-03-24d2t01.flac
6ee604730a64d923c840f56d20d066ac *rd2006-03-24d2t02.flac
3f9a0652cc522d895c3732bc6284deb6 *rd2006-03-24d2t03.flac
ddc51b9817958a97bd64b8b61bb70eac *rd2006-03-24d2t04.flac
ada263bc09a652918f28afe5a81e31a4 *rd2006-03-24d2t05.flac
e846358bbd57a842ab874a393e070bef *rd2006-03-24d2t06.flac
7287380554a978f13f28f041989df715 *rd2006-03-24d2t07.flac
6302bf448c2a3687a1eb4859de649e9d *rd2006-03-24d2t08.flac
596b08cbc181c9e9b465cbc89f306fd7 *rd2006-03-24d3t01.flac
5aed413a408c2c0cbef1dff6f539c6a4 *rd2006-03-24d3t02.flac
739700d569cefcc78c3171d40aefa2f7 *rd2006-03-24d3t03.flac
db0debfcbe601f559ba1027ca4a366ca *rd2006-03-24d3t04.flac
2ad862897a9bc6b01d2cb5d3b2f97623 *rd2006-03-24d3t05.flac
.ffp
rd2006-03-24d1t01.flac:712ccf9f6e3cdd011f58675cbceb4978
rd2006-03-24d1t02.flac:7deb8f8f71539f50cf1822e0edfbdb37
rd2006-03-24d1t03.flac:2491ad009101a0a2dd89b3681b51b73a
rd2006-03-24d1t04.flac:9b5639193ff6c3c52bc6505ac591360e
rd2006-03-24d1t05.flac:bef7d55eee4635d3cc955b635844c436
rd2006-03-24d1t06.flac:7e136c6da0b99d294343b308cf5502ad
rd2006-03-24d1t07.flac:9a87ac78320d04cd152e02d4c910cc48
rd2006-03-24d1t08.flac:840e6b14bae75efd9a053efbb7032ab3
rd2006-03-24d2t01.flac:be5f13c042bd9f89ef792a8dc7ff1b5d
rd2006-03-24d2t02.flac:7bc38020137966f25a40746b1df00af7
rd2006-03-24d2t03.flac:33e544c75f2333adb243cd028f4deafa
rd2006-03-24d2t04.flac:211bab0d7eb44ac8e2d9d435786fd727
rd2006-03-24d2t05.flac:fae5daf303faa75417abcf537f336064
rd2006-03-24d2t06.flac:11afef404f9b87dd6e0394e21900df2e
rd2006-03-24d2t07.flac:d7b138931e6d35d0b8003b86ddd9cd51
rd2006-03-24d2t08.flac:c70c44eedf2fa44fb2c0ba8e8c6512fd
rd2006-03-24d3t01.flac:b31a541c51322ce037a80b003b45e408
rd2006-03-24d3t02.flac:08fa83795eb4eb1fcbff6058bb64834b
rd2006-03-24d3t03.flac:a377f19c5c3f85434d4e8b3b4a6927a6
rd2006-03-24d3t04.flac:dca2c5ec6e458f53176db3d51198334c
rd2006-03-24d3t05.flac:9a9f26827e7849d377c4b88335d74a54

Comments
Add Comment
Date User Comment
01/06/2010 slater219 do u have 3/25/06 if so can u post it