Browse Collections Artists Sources   Search Dates

Add Show    List Management    Help


Ratdog 04/08/06
Beacon Theatre, New York, NY
Comments Add Comment    Source Collectors    Add to Collection    Add to Want List    History
Source # 34023 Other Sources
Entered by ziko
Checksums .ffp
Disc Counts 2 / 3
Media Size
Date Circulated
Date Added
04/12/2006
04/14/2006
Source Summary Source: Neumann SKM 184's (din 90*/20cm) > Lunatec V3(44.1) Optical Mod > JB3 (16/44.1); Location: F O B - D F C/ row J-107&108 @ 9 feet High; Lineage: JB3 > USB > Creative Playcenter > CD WAVE > CDR > EAC > Flac Frontend(level 6) > FLAC16; Recorded, transferred, and tracked by : Larry -FLDEADHEAD EAC, file conversion and seeded to bt.etree.org by Alex Ford 
  Archive
Source Information - Download Text | Download Zip
Ratdog
4/08/2006
Beacon Theatre,
New York, NY

Source: Neumann SKM 184's (din 90*/20cm) > Lunatec V3(44.1) Optical Mod > JB3 (16/44.1)

Location: F O B - D F C/ row J-107&108 @ 9 feet High

Lineage: JB3 > USB > Creative Playcenter > CD WAVE > CDR > EAC > Flac Frontend(level 6) > FLAC16.

Recorded, transferred, and tracked by : Larry -FLDEADHEAD
EAC, file conversion and seeded to bt.etree.org by Alex Ford


Disc 1
Set I:

01. Crowd
02. Jam >
03. Shakedown Street >
04. Maggie's Farm >
05. She Belongs to Me >
06. Frankie and Johnny#,
07. Row Jimmy,
08. Jack Straw >
09. Lazy River Road >
10. Big Railroad Blues

Disc 2:

01. Crowd
02. Deep Elem [email protected],
03. [email protected],
04. A Hard Rain's Gonna [email protected],
05. Easy Answers >
06. He's Gone >
07. Eyes of the World >
08. Stuff

Disc 03

01. Sugaree* >
02. Dark Star* >
03. Bird Song* >
04. One More Saturday Night*
Encores:
05. Brokedown Palace
06. U.S. Blues,
07. Outro

*-w/ John Ginty (keys)

# First "Frankie and Johnny"



Shntool Output:

length     expanded size   cdr  WAVE problems filename
     0:51.02        9001148    ---   --   -----   rd2006-04-08d1t01.wav
     2:51.52       30286748    ---   --   -----   rd2006-04-08d1t02.wav
     9:44.45      103123484    ---   --   -----   rd2006-04-08d1t03.wav
     7:28.49       79142492    ---   --   -----   rd2006-04-08d1t04.wav
     7:20.08       77634860    ---   --   -----   rd2006-04-08d1t05.wav
     4:33.54       48284252    ---   --   -----   rd2006-04-08d1t06.wav
    10:23.02      109901948    ---   --   -----   rd2006-04-08d1t07.wav
     9:50.62      104221868    ---   --   -----   rd2006-04-08d1t08.wav
     8:44.01       92435996    ---   --   -----   rd2006-04-08d1t09.wav
     5:20.11       56473916    ---   --   -----   rd2006-04-08d1t10.wav
     0:30.31        5364956    ---   --   -----   rd2006-04-08d2t01.wav
     7:21.40       77886524    ---   --   -----   rd2006-04-08d2t02.wav
     4:32.01       47983196    ---   --   -----   rd2006-04-08d2t03.wav
     8:48.54       93266252    ---   --   -----   rd2006-04-08d2t04.wav
    13:04.69      138459932    ---   --   -----   rd2006-04-08d2t05.wav
    10:57.59      116033612    ---   --   -----   rd2006-04-08d2t06.wav
    11:51.51      125540396    ---   --   -----   rd2006-04-08d2t07.wav
     6:30.34       68876012    ---   --   -----   rd2006-04-08d2t08.wav
    12:30.17      132340028    ---   --   -----   rd2006-04-08d3t01.wav
     6:33.68       69485180    ---   --   -----   rd2006-04-08d3t02.wav
     7:26.71       78841436    ---   --   -----   rd2006-04-08d3t03.wav
     7:26.52       78796748    ---   --   -----   rd2006-04-08d3t04.wav
     5:32.59       58703612    ---   --   -----   rd2006-04-08d3t05.wav
     6:35.35       69760364    ---   --   -----   rd2006-04-08d3t06.wav
     0:42.71        7575836    ---   --   -----   rd2006-04-08d3t07.wav
   177:34.23     1879420796 B                     (totals for 25 files, 1.0000 overall compression ratio)


Flac Fingerprint:

rd2006-04-08d1t01.flac:8d741238cf1dda542ef4bd9d07c0efe8
rd2006-04-08d1t02.flac:41f39e6cb60a66ee89b9c16825d7b01f
rd2006-04-08d1t03.flac:06b88c8538d5ab86bea43d551a43dae7
rd2006-04-08d1t04.flac:a482b4f816eba1ace57b78742691f970
rd2006-04-08d1t05.flac:6e3e31546aa865030cbadcc7ca552011
rd2006-04-08d1t06.flac:8d27b4a2e9aaf5eee63d60bc3a40c4c6
rd2006-04-08d1t07.flac:464edc9190655414d615ad28b6061f96
rd2006-04-08d1t08.flac:b8d19ce1c55198c41b7d4d5e2470aab8
rd2006-04-08d1t09.flac:46dc8dbf7b2e090548707a9d93febcb3
rd2006-04-08d1t10.flac:5fbe26818f06570c4c86c9528ed185e2
rd2006-04-08d2t01.flac:410fe98bde11ccbd0c0cc94eb7b83ca6
rd2006-04-08d2t02.flac:1e244863e0590d16bb6025649a1dce8d
rd2006-04-08d2t03.flac:b2f7859b4394c5766de69c842162e3fe
rd2006-04-08d2t04.flac:c0ab50a0563dfb46d889fbc72e671164
rd2006-04-08d2t05.flac:19441722428923b0a7d09526644b554d
rd2006-04-08d2t06.flac:6d95becf625b307385a4f06b4cd6d1a6
rd2006-04-08d2t07.flac:655b514888b800dc4c45ad2d1536c174
rd2006-04-08d2t08.flac:425eb5753929d3dd741fcda170dddcf8
rd2006-04-08d3t01.flac:10328e2c6b946c6d36ce6ad7dbd35289
rd2006-04-08d3t02.flac:9678ead42970b4205451ced135496fbd
rd2006-04-08d3t03.flac:1ada8a378387fd0527642255fc247bb1
rd2006-04-08d3t04.flac:1537028ada267992dee5def27639a6ad
rd2006-04-08d3t05.flac:d003d99595311f08a382f172a3f8c6ef
rd2006-04-08d3t06.flac:ba4fdf5ac31290a169a7ef728edc5703
rd2006-04-08d3t07.flac:946ed39b6ac57e89adb054dab59623fb
Show Checksums
.ffp
rd2006-04-08d1t01.flac:8d741238cf1dda542ef4bd9d07c0efe8
rd2006-04-08d1t02.flac:41f39e6cb60a66ee89b9c16825d7b01f
rd2006-04-08d1t03.flac:06b88c8538d5ab86bea43d551a43dae7
rd2006-04-08d1t04.flac:a482b4f816eba1ace57b78742691f970
rd2006-04-08d1t05.flac:6e3e31546aa865030cbadcc7ca552011
rd2006-04-08d1t06.flac:8d27b4a2e9aaf5eee63d60bc3a40c4c6
rd2006-04-08d1t07.flac:464edc9190655414d615ad28b6061f96
rd2006-04-08d1t08.flac:b8d19ce1c55198c41b7d4d5e2470aab8
rd2006-04-08d1t09.flac:46dc8dbf7b2e090548707a9d93febcb3
rd2006-04-08d1t10.flac:5fbe26818f06570c4c86c9528ed185e2
rd2006-04-08d2t01.flac:410fe98bde11ccbd0c0cc94eb7b83ca6
rd2006-04-08d2t02.flac:1e244863e0590d16bb6025649a1dce8d
rd2006-04-08d2t03.flac:b2f7859b4394c5766de69c842162e3fe
rd2006-04-08d2t04.flac:c0ab50a0563dfb46d889fbc72e671164
rd2006-04-08d2t05.flac:19441722428923b0a7d09526644b554d
rd2006-04-08d2t06.flac:6d95becf625b307385a4f06b4cd6d1a6
rd2006-04-08d2t07.flac:655b514888b800dc4c45ad2d1536c174
rd2006-04-08d2t08.flac:425eb5753929d3dd741fcda170dddcf8
rd2006-04-08d3t01.flac:10328e2c6b946c6d36ce6ad7dbd35289
rd2006-04-08d3t02.flac:9678ead42970b4205451ced135496fbd
rd2006-04-08d3t03.flac:1ada8a378387fd0527642255fc247bb1
rd2006-04-08d3t04.flac:1537028ada267992dee5def27639a6ad
rd2006-04-08d3t05.flac:d003d99595311f08a382f172a3f8c6ef
rd2006-04-08d3t06.flac:ba4fdf5ac31290a169a7ef728edc5703
rd2006-04-08d3t07.flac:946ed39b6ac57e89adb054dab59623fb

Comments
Add Comment
Date User Comment