Browse Collections Artists Sources   Search Dates

Add Show    List Management    Help


Ratdog 04/06/06
Beacon Theatre, New York, NY
Comments Add Comment    Source Collectors    Add to Collection    Add to Want List    History
Source # 34460 Other Sources
Entered by ziko
Checksums .ffp
Disc Counts 2 / 3
Media Size
Date Circulated
Date Added
04/20/2006
04/20/2006
Source Summary Source: Neumann SKM 184's (Din90*/17cm) > Lunatec V3(44.1) Optical Mod > JB3 (16/44.1); Location: @ SBD - DFC row N - seat 106 / 11 FEET HIGH; Lineage: JB3 > USB > CreativePlaycenter > CD Wave Editor > CDR > EAC(no errors)>WinXP Pro > Traders Little Helper>FLAC16; Recorded, Transferred & Tracked by Larry - FLDEADHEAD Sector boundaries verified w/ TLH. Files encoded @ level 6. An EAC log is included with this fileset. EAC>FLAC16 and seeding to bt.etree.org by Alex Ford 
  Archive
Source Information - Download Text | Download Zip
Ratdog
04/06/2006
Beacon Theatre
New York, NY

Source: Neumann SKM 184's (Din90*/17cm) > Lunatec V3(44.1) Optical Mod > JB3 (16/44.1)

Location: @ SBD - DFC row N - seat 106 / 11 FEET HIGH

Lineage: JB3>USB>CreativePlaycenter>CD Wave Editor>CDR>EAC(no errors)>WinXP Pro>Traders Little Helper>FLAC16.

Recorded, Transferred & Tracked by Larry - FLDEADHEAD
Sector boundaries verified w/ TLH. Files encoded @ level 6. An EAC log is included with this fileset.
EAC>FLAC16 and seeding to bt.etree.org by Alex Ford


Set I:

d1t01  crowd/Trump intro  
d1t02  Jam >
d1t03  The Golden Road to Unlimited Devotion >
d1t04  Bertha,
d1t05  Bird Song >
d1t06  Little Red Rooster,  
d1t07  Odessa,
d1t08  Senor >
d1t09  Crazy Fingers >
d2t01  Jus' Like Mama Said >
d2t02  New Speedway Boogie

Set II:

d2t03  crowd/tuning
d2t04  K.C. [email protected],
d2t05  [email protected],
d2t06  The [email protected],
d2t07  China Cat Sunflower* >
d2t08  I Know You Rider*,
d3t01  Stuff*,  
d3t02  Wharf Rat >
d3t03  Sugar Magnolia
Encores:
d3t04  Attics of My Life,
d3t05  Foolish Heart

*-w/ DJ Logic;
Stuff - Jay/Logic > Jay/Logic/Kenny/Jeff > Jay/Logic/Kenny/Jeff/MK/Robin > all/Logic
(Donald Trump emceed)

Shntool Output:

length      expanded size   cdr  WAVE problems filename
     1:11.41       12620876    ---   --   -----   rd2006-04-06d1t01.wav
     2:57.45       31328684    ---   --   -----   rd2006-04-06d1t02.wav
     6:00.65       63656924    ---   --   -----   rd2006-04-06d1t03.wav
     7:31.49       79671692    ---   --   -----   rd2006-04-06d1t04.wav
    13:01.09      137789612    ---   --   -----   rd2006-04-06d1t05.wav
    10:30.56      111263756    ---   --   -----   rd2006-04-06d1t06.wav
     7:29.61       79347116    ---   --   -----   rd2006-04-06d1t07.wav
     8:14.62       87287468    ---   --   -----   rd2006-04-06d1t08.wav
    11:07.74      117832892    ---   --   -----   rd2006-04-06d1t09.wav
     9:30.17       100588028    ---   --   -----   rd2006-04-06d2t01.wav
     8:17.58       87807260    ---   --   -----   rd2006-04-06d2t02.wav
     1:27.52       15469148    ---   --   -----   rd2006-04-06d2t03.wav
     5:15.57       55700108    ---   --   -----   rd2006-04-06d2t04.wav
     8:49.22       93367388    ---   --   -----   rd2006-04-06d2t05.wav
     7:45.07       82042508    ---   --   -----   rd2006-04-06d2t06.wav
     6:07.74       64912892    ---   --   -----   rd2006-04-06d2t07.wav
    10:59.74      116421692    ---   --   -----   rd2006-04-06d2t08.wav
     7:40.56       81275756    ---   --   -----   rd2006-04-06d3t01.wav
    13:28.42      142630028    ---   --   -----   rd2006-04-06d3t02.wav
    12:04.26      127774796    ---   --   -----   rd2006-04-06d3t03.wav
     5:49.23       61617740    ---   --   -----   rd2006-04-06d3t04.wav
     8:26.60       89399564    ---   --   -----   rd2006-04-06d3t05.wav
   173:49.55     1839805928 B                     (totals for 22 files, 1.0000 overall compression ratio)


FFP:

rd2006-04-06d1t01.flac:fdb4e4357f2065b9a3734121101ae9e6
rd2006-04-06d1t02.flac:0bc2745dc3735a54da6cee6419e58949
rd2006-04-06d1t03.flac:27fb34cfb351c2c25902bae636f576ac
rd2006-04-06d1t04.flac:45128c5eb4a83d8d7b81a27b2dbf3ddd
rd2006-04-06d1t05.flac:353742d7fdf788cb00c4874171fa02d0
rd2006-04-06d1t06.flac:35d699189e669ad326c8de43c99e0f33
rd2006-04-06d1t07.flac:19ee16de8e5d23d9f90911e2e4b79c67
rd2006-04-06d1t08.flac:73b13edb02007a3b5a6a49e0cae47860
rd2006-04-06d1t09.flac:06617ad0b72521b62a6d43dbce670b00
rd2006-04-06d2t01.flac:d9d9feb4ac9e3237acd188eaa1b4c318
rd2006-04-06d2t02.flac:04d099b1d743c761045e0d3c008cb290
rd2006-04-06d2t03.flac:7d6917916bf5d106fdf9300b9f83e190
rd2006-04-06d2t04.flac:d19eb52a9f804717b4193a7519788922
rd2006-04-06d2t05.flac:c556ade4e25d7b6bba42099d24e28d05
rd2006-04-06d2t06.flac:bb588cabf3ab64b0ed774136941fd994
rd2006-04-06d2t07.flac:0285450f1219cc61df48e4533ef857d9
rd2006-04-06d2t08.flac:fcd431b043bff874c50bd97e8a9d3f28
rd2006-04-06d3t01.flac:7ace30125c3f6f6d7ee22f6fcb15b8b2
rd2006-04-06d3t02.flac:39c2df8e22e4afec65b9cb472b4543d1
rd2006-04-06d3t03.flac:8ed20914cb35d28c18be2daaa411a83e
rd2006-04-06d3t04.flac:57e91c9c880b179977858d846d9c8c3e
rd2006-04-06d3t05.flac:b557e3736dbd56f072b3da814ae6c744
Show Checksums
.ffp
rd2006-04-06d1t01.flac:fdb4e4357f2065b9a3734121101ae9e6
rd2006-04-06d1t02.flac:0bc2745dc3735a54da6cee6419e58949
rd2006-04-06d1t03.flac:27fb34cfb351c2c25902bae636f576ac
rd2006-04-06d1t04.flac:45128c5eb4a83d8d7b81a27b2dbf3ddd
rd2006-04-06d1t05.flac:353742d7fdf788cb00c4874171fa02d0
rd2006-04-06d1t06.flac:35d699189e669ad326c8de43c99e0f33
rd2006-04-06d1t07.flac:19ee16de8e5d23d9f90911e2e4b79c67
rd2006-04-06d1t08.flac:73b13edb02007a3b5a6a49e0cae47860
rd2006-04-06d1t09.flac:06617ad0b72521b62a6d43dbce670b00
rd2006-04-06d2t01.flac:d9d9feb4ac9e3237acd188eaa1b4c318
rd2006-04-06d2t02.flac:04d099b1d743c761045e0d3c008cb290
rd2006-04-06d2t03.flac:7d6917916bf5d106fdf9300b9f83e190
rd2006-04-06d2t04.flac:d19eb52a9f804717b4193a7519788922
rd2006-04-06d2t05.flac:c556ade4e25d7b6bba42099d24e28d05
rd2006-04-06d2t06.flac:bb588cabf3ab64b0ed774136941fd994
rd2006-04-06d2t07.flac:0285450f1219cc61df48e4533ef857d9
rd2006-04-06d2t08.flac:fcd431b043bff874c50bd97e8a9d3f28
rd2006-04-06d3t01.flac:7ace30125c3f6f6d7ee22f6fcb15b8b2
rd2006-04-06d3t02.flac:39c2df8e22e4afec65b9cb472b4543d1
rd2006-04-06d3t03.flac:8ed20914cb35d28c18be2daaa411a83e
rd2006-04-06d3t04.flac:57e91c9c880b179977858d846d9c8c3e
rd2006-04-06d3t05.flac:b557e3736dbd56f072b3da814ae6c744

Comments
Add Comment
Other Sources (comments)
Source : Audience... (0) Microtech Gefel M200... (0)
Date User Comment