Browse Collections Artists Sources   Search Dates

Add Show    List Management    Help


Grateful Dead 10/02/88
Shoreline Amphitheatre, Mountain View, CA
Comments Add Comment    Source Collectors    Add to Collection    Add to Want List    History
Source # 34467 Other Sources
Entered by Matt Vernon
Checksums ffp , orig-flac-replaygain-md5 , flac-md5
Disc Counts 2 / 3
Media Size
Date Circulated
Date Added
05/02/2006
05/02/2006
Source Summary flac16; Seamless fix of shn id 7637 - Cassette Soundboard>DAT>CDR>EAC>SHN(seekable)>WAV>FLAC. Note Added 11/9/08: Reflac version w/o replay gain added. See info file for details 
  Archive
Source Information - Download Text | Download Zip
Grateful Dead
10/2/88
Shoreline Amphitheatre
Mountain View, CA
------------------------------------------------------------------------
Fix of shnid 7637

The bass track at the end of CD 2 was a carbon copy of the first
minute and a half of d3t01, except d3t01 had a < 1 second gap.  I
picked a splice point on both tracks, deleted the redundant material
in between, and fused the two into one seamless track (new d3t01),
then got rid of d2t08.  The nonseekable shns were converted to FLAC
and any resulting SBEs from the fix were corrected with shntool.

Bill Tetzeli ([email protected])
4/7/2006
------------------------------------------------------------------------
When this source was first circulated, the flac files contained
REPLAYGAIN tags. The wav files compressed inside the flac files are
fine, but if you listen to the flac files themselves using a player
like WinAMP, these tags cause all the tracks to be played at the same
volume. That's not good for concerts where some tracks are supposed to
be louder than others.

There's a new version of this source available. It has exactly the
same wav files; it's just the flac wrapper that's different, the
wrapper doesn't have REPLAYGAIN set anymore. The new version has the
same ffp file (since the wav's are the same), but a new md5 file
(since the flac files are different). The md5 file for the old source
is called "orig-flac-replaygain-md5"; the md5 file for the good new
source is called "flac-md5". If you have a source for this that
matches the ffp, you can create the new source by unflac'ing the old
source and then recompressing at flac level 8 using the flac command
line tool or the flac frontend.

From now on, only the new version of the source should be circulated.

SteveSw - Nov, 2008
------------------------------------------------------------------------

Cassette Soundboard>DAT>CDR>EAC>SHN(seekable)>WAV>FLAC


Disk 1:

Set I:

1.  Cold Rain & Snow
2.  Minglewood Blues
3.  Peggy-O
4.  Memphis Blues
5.  To Lay Me Down
6.  Box Of Rain
7.  Deal


Disk 2:

Set II:

1.  Spacey Tuning->
2.  Crazy Fingers->
3.  Samson & Delilah
4.  Space->
5.  Estimated Prophet->
6.  Eyes Of The World->
7.  Drums->

Disk 3:

Set II, cont.:

1.  Phil Space->Space->
2.  Gimme Some Lovin'->
3.  Stella Blue->
4.  Throwing Stones->
5.  Not Fade Away,
6.  E: Black Muddy River

EAC/SHN by Darrin ([email protected]) -- Seeded to etree 1/2002

Enjoy!


==========

    length     expanded size    cdr  WAVE problems  fmt   ratio  filename
     6:15.45       66255884 B   ---   --   ---xx   flac  0.5774  gd88-10-02d1t01.flac
     7:03.33       74694860 B   ---   --   ---xx   flac  0.5962  gd88-10-02d1t02.flac
     6:55.11       73231916 B   ---   --   ---xx   flac  0.5603  gd88-10-02d1t03.flac
     8:55.51       94493996 B   ---   --   ---xx   flac  0.6160  gd88-10-02d1t04.flac
     7:05.13       75000620 B   ---   --   ---xx   flac  0.5497  gd88-10-02d1t05.flac
     4:56.39       52306172 B   ---   --   ---xx   flac  0.5989  gd88-10-02d1t06.flac
     6:49.53       72272300 B   ---   --   ---xx   flac  0.6088  gd88-10-02d1t07.flac
     1:39.36       17548316 B   ---   --   ---xx   flac  0.5068  gd88-10-02d2t01.flac
     7:29.30       79274204 B   ---   --   ---xx   flac  0.5673  gd88-10-02d2t02.flac
     7:44.31       81922556 B   ---   --   ---xx   flac  0.6109  gd88-10-02d2t03.flac
     4:15.72       45151388 B   ---   --   ---xx   flac  0.5364  gd88-10-02d2t04.flac
    11:08.50      117952844 B   ---   --   ---xx   flac  0.5887  gd88-10-02d2t05.flac
     7:54.35       83695964 B   ---   --   ---xx   flac  0.5911  gd88-10-02d2t06.flac
    10:17.71      109005836 B   ---   --   ---xx   flac  0.5266  gd88-10-02d2t07.flac
    13:33.06      143427356 B   ---   --   ---xx   flac  0.5067  gd88-10-02d3t01.flac
     4:34.25       48392444 B   ---   --   ---xx   flac  0.6036  gd88-10-02d3t02.flac
     8:12.57       86922908 B   ---   --   ---xx   flac  0.5372  gd88-10-02d3t03.flac
    10:25.46      110358236 B   ---   --   ---xx   flac  0.5940  gd88-10-02d3t04.flac
     5:07.52       54277148 B   ---   --   ---xx   flac  0.5964  gd88-10-02d3t05.flac
     6:33.20       69372284 B   ---   --   ---xx   flac  0.5308  gd88-10-02d3t06.flac
   146:58.26     1555557232 B                            0.5698  (20 files)
Show Checksums
ffp
gd88-10-02d1t01.flac:810a61a57c4e8c0c2bdfcf92f2a19e12
gd88-10-02d1t02.flac:d5fa19cb0e19b59c33d95fe26bd93914
gd88-10-02d1t03.flac:66643338b3ccbd178e848ed52b06fbfa
gd88-10-02d1t04.flac:dd9cfce3fa2558e8e6d9044e91add038
gd88-10-02d1t05.flac:0d4e54e44c7b444ea17a3d2f73fee2b8
gd88-10-02d1t06.flac:efac0bd476e52ce34986bb746880ae07
gd88-10-02d1t07.flac:73c18c1bfcb44741d6b27f09fd3771b4
gd88-10-02d2t01.flac:ec2ae31c57b72bdc5feb72670788a4e0
gd88-10-02d2t02.flac:e4a3d3a05962ae1e24736e819d71f078
gd88-10-02d2t03.flac:5770a1b39ee128360f254472ab00dc6a
gd88-10-02d2t04.flac:d527211f5c65422bf473dd60f1248882
gd88-10-02d2t05.flac:e0fe0c23cfcbe426558424043b8f4bc4
gd88-10-02d2t06.flac:90e68f28cbfd05053ee23eb1037d13eb
gd88-10-02d2t07.flac:581d4dbc15d5062f5de4cf8d59a0f4f7
gd88-10-02d3t01.flac:c337115d21a771bf3dc5ec2b986ed7f6
gd88-10-02d3t02.flac:4532566e1eb93128968119ffb7f5df2f
gd88-10-02d3t03.flac:57077d9bd4629ca0a2f9a9314ecd831e
gd88-10-02d3t04.flac:3a9c32ab7d9efff0ad6fe3760b3d2735
gd88-10-02d3t05.flac:5d82dea8f969681dd389cd6afff2bfde
gd88-10-02d3t06.flac:e73acf09d62a54872c93c9cdb5a11561
orig-flac-replaygain-md5
adb85e589d2ddd222cb9e33867c2cd7a *gd88-10-02d1t01.flac
4ab41e9dc328eedb01a518b57917a47e *gd88-10-02d1t02.flac
04c7e44481d877449982da3eeb22462b *gd88-10-02d1t03.flac
2ab6af4c7ea5c9328ab720bef6353856 *gd88-10-02d1t04.flac
88f9a9ed922dc225c034a73aa68604e3 *gd88-10-02d1t05.flac
2f7a8d342c9580bde66e66fbc13a78ff *gd88-10-02d1t06.flac
79c7ee7696eedad2a61153075a449eae *gd88-10-02d1t07.flac
0f4fa3f9cbb8c3914f7a860d2a852f9d *gd88-10-02d2t01.flac
9286005dc7285700d50798cac09f73d8 *gd88-10-02d2t02.flac
adc3fc4329ec6d18269d8b32a946e116 *gd88-10-02d2t03.flac
b51f3890adc99fa713b6a51d5d38606e *gd88-10-02d2t04.flac
d0430c42adbbf079597024a49c8b4e2a *gd88-10-02d2t05.flac
faff0e0f4d196a416b7a76deda74642d *gd88-10-02d2t06.flac
fd2e8359006bae4ab39f220255d87697 *gd88-10-02d2t07.flac
44e251216d8e0d5d132cc998e4ca4a82 *gd88-10-02d3t01.flac
3dd2b2c74ebe8b1943fbf293d703a60a *gd88-10-02d3t02.flac
68277bb51bd7c06c30c327fb79ce522b *gd88-10-02d3t03.flac
28fd92addfe0096d9e1ada9f7a63d681 *gd88-10-02d3t04.flac
5f457c13e04b0fcf2421153ae5bb5d55 *gd88-10-02d3t05.flac
207303396d62ea8f331e49c67b96b096 *gd88-10-02d3t06.flac
flac-md5
6079322049ae5c73ae73b2c0c0a8131f *gd88-10-02d1t01.flac
71819c218e48258097d04a3e56e59580 *gd88-10-02d1t02.flac
e1b81dc7c3e56c0a3e55d6385da867ab *gd88-10-02d1t03.flac
0f0a10a4da18cf92fb6b2fd4d19f760e *gd88-10-02d1t04.flac
84bf3e607052fa6060f5ad58045b3652 *gd88-10-02d1t05.flac
0d6409600994481d2f6b0e196f0a69d7 *gd88-10-02d1t06.flac
d07c9a2f22e5b77f05a2cc712cdafc6d *gd88-10-02d1t07.flac
46360978294823667b6c7e8ed7b39f40 *gd88-10-02d2t01.flac
aa2a8a52e3ff3c73e5cfa35ac4b2aaa3 *gd88-10-02d2t02.flac
f9226e97beae3db6e9c03effae0bd171 *gd88-10-02d2t03.flac
e66aa6e080c86921fb2f5924f7da1465 *gd88-10-02d2t04.flac
ca5a644affe61fa8f7710f860c4d129b *gd88-10-02d2t05.flac
df6a8edb9b1d2c3a2adeb8c8f9048491 *gd88-10-02d2t06.flac
ee8c7b6e8292379e512b086a7d532488 *gd88-10-02d2t07.flac
530c2b9625c01122ddf383c0d1e3c494 *gd88-10-02d3t01.flac
1ed8028056ff0fb9b52f3422fa2396bc *gd88-10-02d3t02.flac
d80ff8a61af0b3ef7975e39130c7c8b4 *gd88-10-02d3t03.flac
034a9a1b2f4dbd246783fa0bdd41f32c *gd88-10-02d3t04.flac
b9ec27bcfc966482fd6f414adf6a020e *gd88-10-02d3t05.flac
073dfc2b7181844f445825eeb1d57eef *gd88-10-02d3t06.flac

Comments
Add Comment
Other Sources (comments)
SBD> Cass> DAT> CDR>... (1) flac16; Beyer M-88's... (0) flac24; Set 2... (0) flac16; Set 2... (0)
Date User Comment
11/09/2006 btet This was inadvertently FLAC encoded with replaygain. If you're playing the FLACs in Winamp you should reFLAC the files without the replaygain option. If you're burning extracted .wavs to CD, these are unaffected and no reFLACing is necessary. I apologize for the error.