Browse Collections Artists Sources   Search Dates

Add Show    List Management    Help


Garcia 11/07/74
Bottom Line, New York, NY
Comments Add Comment    Source Collectors    Add to Collection    Add to Want List    History
Source # 34741 Other Sources
Entered by Joe Jupille
Checksums ffp , flac-md5 , wav-md5
Disc Counts 1 / 1
Media Size
Date Circulated
Date Added
04/30/2006
05/18/2006
Source Summary Garcia & Saunders: Jerry Moore's MAC (front of the third tier of tables, dead center AKG D 1000E mics > Sony TC-152) > unknown transfer details and subsequent gens > DAT > WAV 48k > FLAC 48k. DAT transfer by Todd Evans, FLAC encoding by Mike Hughey (GEMS). 
Source Information - Download Text | Download Zip
Garcia & Saunders
(Legion of Mary cast)
The Bottom Line
New York, NY
11/7/74 Early Show

MAC > DAT > WAV 48k > FLAC 48k

Recording Detail:
Taped by Jerry Moore [front of the third tier of tables, dead center]
AKG D 1000E mics > Sony TC-152 cassette deck

Transfer Detail:
Master cassettes played back on a Tascam 122 MK III cassette deck > Tascam DA-40 DAT deck by Mark Cohen
DAT > TASCAM DA-20 > M-Audio FireWire solo > Soundforge 8.0 wav by Todd Evans
48k wav edits (Adobe Audition 1.5) > tracking (CDwave) > 48k FLAC (1.1.2a) by Mike Hughey [email protected] dotcom


Set List

Disc One (4) 45:37
01. Crowd & Tuning [1:14]
02. It's No Use [12:24]
03. Favela [14:03]
04. Harder They Come [17:55]
Total [45:37]  

Disc Two (3) 40:21
01. Leave Your Hat On [16:23]
02. It Takes a Lot to Laugh, It Takes a Train to Cry [10:57]
03. Mystery Train [13:01]

seamless for longer media


Source Notes:
DATs apparently circulated labeled MAR, but best current information suggests MAC.
Futher details here: http://www.thejerrysite.com/Performance.do?action=id&id=244


Edit notes:
Both channel complete drop out 1:14-1:15. Patched from alternate source
Right channel sudden level drop 3:52:19-5:10:21. Normalized +1.00 dB
Both channel digital static/drops 10:13-10:35. Patched from alternate source*
Both channel digital static/drops 10:53-10:55. Patched from alternate source*
Both channel numerous digital static artifacts 11:17:06-12:02:74. Patched from alternate source*
Left channel drop 14:06. Subsecond patch from rt. channel
Right channel drop 51:41. Subsecond patch from left channel
Both channel static d/o 58:07. Patched from alternate source*
Tape flip/reel change 59:40 during applause after d2t01(14:04). 2 sec fast-fade to smooth w/out loss.
Left channel pop 1:20:04-1:20:05. Patched from rt. channel.
Left channel digital static pop/hiss 1:21:46:64-1:21:46:69. Patched from rt. channel.

*Patch Source:
http://db.etree.org/shn/14306 (which is likely the same master recording with extra CD>EAC step)

SHNTOOL Output:
length     expanded size   cdr  WAVE problems filename
01:14.453      14295084    cxx   --   -----   jg+ms1974-11-07_48k_d1t01.wav
12:24.120     142871084    cxx   --   -----   jg+ms1974-11-07_48k_d1t02.wav
14:02.867     161830444    cxx   --   -----   jg+ms1974-11-07_48k_d1t03.wav
17:55.120     206423084    cxx   --   -----   jg+ms1974-11-07_48k_d1t04.wav
16:22.720     188682284    cxx   --   -----   jg+ms1974-11-07_48k_d2t01.wav
10:56.667     126080044    cxx   --   -----   jg+ms1974-11-07_48k_d2t02.wav
13:01.667     150080044    cxx   --   -----   jg+ms1974-11-07_48k_d2t03.wav
85:57.613     990262068 B                     (totals for 7 files, 1.0000 overall compression)

FLAC ffp:
jg+ms1974-11-07_48k_d1t01.flac:4bfb0d8d2396b1426ad440cc37ff5bb9
jg+ms1974-11-07_48k_d1t02.flac:d433db56aa16e6d09225a9ea6ec0937d
jg+ms1974-11-07_48k_d1t03.flac:d8310677e036b877cf7d664a64c2f779
jg+ms1974-11-07_48k_d1t04.flac:9663508afeaa242e3f5d62cdca56bc54
jg+ms1974-11-07_48k_d2t01.flac:84f4d144488c22a9dc2c7114a2a2d1a0
jg+ms1974-11-07_48k_d2t02.flac:1152b928ba8c2c2e514f0494592b526b
jg+ms1974-11-07_48k_d2t03.flac:f9282bf02054be985a383d4ec86fbfaf


A GEMS production -+-+- www.shnflac.net -+-+- April 2006


Show Checksums
ffp
jg+ms1974-11-07_48k_d1t01.flac:4bfb0d8d2396b1426ad440cc37ff5bb9
jg+ms1974-11-07_48k_d1t02.flac:d433db56aa16e6d09225a9ea6ec0937d
jg+ms1974-11-07_48k_d1t03.flac:d8310677e036b877cf7d664a64c2f779
jg+ms1974-11-07_48k_d1t04.flac:9663508afeaa242e3f5d62cdca56bc54
jg+ms1974-11-07_48k_d2t01.flac:84f4d144488c22a9dc2c7114a2a2d1a0
jg+ms1974-11-07_48k_d2t02.flac:1152b928ba8c2c2e514f0494592b526b
jg+ms1974-11-07_48k_d2t03.flac:f9282bf02054be985a383d4ec86fbfaf
flac-md5
7cca967b9f7ee68de4c6b9cea15878be *jg+ms1974-11-07_48k_d1t01.flac
59fa8d66764b5d54155ce57ef891500f *jg+ms1974-11-07_48k_d1t02.flac
accb1ca40fb0164de5b633d882563c0d *jg+ms1974-11-07_48k_d1t03.flac
d530df6d6fd1afe374e632dc9deded11 *jg+ms1974-11-07_48k_d1t04.flac
88f11c995f24cc67922432dea8e5c16a *jg+ms1974-11-07_48k_d2t01.flac
b77833595b222b76f803718f86abe3cf *jg+ms1974-11-07_48k_d2t02.flac
422076fad7202e01cca33c1053cf7ea0 *jg+ms1974-11-07_48k_d2t03.flac
wav-md5
3bba0c0de2ad163453f528bd6ffb24f6 *jg+ms1974-11-07_48k_d1t01.wav
c1eb2708fb144c6edc7197071144ed85 *jg+ms1974-11-07_48k_d1t02.wav
7f7e4890105120e4d15c1364c4f9dc02 *jg+ms1974-11-07_48k_d1t03.wav
fe895f5a8d421409dc9c4776da8260d5 *jg+ms1974-11-07_48k_d1t04.wav
27d4329ee1feffd2817bb682be32e770 *jg+ms1974-11-07_48k_d2t01.wav
36b06b4fbbfd52bbd4975c8fc155ddc8 *jg+ms1974-11-07_48k_d2t02.wav
51cfaaab260a213bd944e78ec966034c *jg+ms1974-11-07_48k_d2t03.wav

Comments
Add Comment
Other Sources (comments)
Garcia & Saunders: Early... (0) JGMS; early show; flac2496;... (0)
Date User Comment