Browse Collections Artists Sources   Search Dates

Add Show    List Management    Help


Grateful Dead 12/31/77
Winterland Arena, San Francisco, CA
Comments Add Comment    Source Collectors    Add to Collection    Add to Want List    History
Source # 35291 Other Sources
Entered by dr.unclear
Checksums shn-md5 , st5
Disc Counts 2 / 3
Media Size
Date Circulated
Date Added
06/27/2006
06/27/2006
Source Summary Seamless fix of shn id 286 - SBD > Master Reel > DAT > CDR > EAC > SHN 
  Archive
Source Information - Download Text | Download Zip
Grateful Dead
12-31-77
Winterland Arena - San Fransisco, CA

----------------------------------------------------------------------------------------
Fix of shnid 286

The following fix was made to this source: the transition between disks 2 and 3 was made seamless.  Shntool was used to correct resulting sector boundary errors.

Bill Tetzeli, [email protected]
3/12/2006
----------------------------------------------------------------------------------------

Source: SBD > Master Reel > DAT > CDR > EAC > SHN
EAC>SHN by brian purvis - [email protected]
Enjoy !

Disc 1:
Set 1:
music never stopped
tennessee jed
funiculi funicula
me and my uncle
loser
jack straw
friend of the devil
lazy lightning ->
supplication


Disc 2:
Set 2:
sugar magnolia ->
scarlet ->
fire
truckin ->
wharf rat ->
drumz ->


Disc 3:
NFA ->
around and around
E:
one more saturday night ->
casey jones


MD5 checksum:

1bb96830adc20babcd123976cc115643 *gd77-12-31d1t01.shn
3af748104eba643eb796665c41cec555 *gd77-12-31d1t02.shn
b83749b69ecf72538f02e130951492ba *gd77-12-31d1t03.shn
1e1f6c556f31fc7126f18840d523423e *gd77-12-31d1t04.shn
0148fbe0b60fd45875443f3844b4f2c4 *gd77-12-31d1t05.shn
c7b529a10d874b6b1b240b8f5639dfff *gd77-12-31d1t06.shn
f747282e4c3d3b71fcb0fe6b02a61822 *gd77-12-31d1t07.shn
e70e477e47f3a8e53b907b5694898e32 *gd77-12-31d1t08.shn
82dd16f3dfd28acb9270aa990200d9b8 *gd77-12-31d1t09.shn
aa4a3eea94415c2b15ea3a88b8ee6bbc *gd77-12-31d2t01.shn
1f524b3741cffd60ebd6b86cc829b8a0 *gd77-12-31d2t02.shn
27a48386f93672bbe87b760381f17c14 *gd77-12-31d2t03.shn
23e70037c352765f2b3572606e8aba2c *gd77-12-31d2t04.shn
bb6ac42e241b384e00804c34851e6575 *gd77-12-31d2t05.shn
8dea3272537206743f324c2b5f8aa9d7 *gd77-12-31d2t06.shn
ac02b1f2fa3c08a0680f8cbd88584559 *gd77-12-31d3t01.shn
75e7c4ed4921a5d775de82da3382a4d2 *gd77-12-31d3t02.shn
6415a81dc1fc5f8d6f94a0ea998b4fa6 *gd77-12-31d3t03.shn
e9179c01cb8012da4c0b4b1467e8f3b9 *gd77-12-31d3t04.shn

shntool output:

    length     expanded size   cdr  WAVE problems filename
     8:35.69       91008332    ---   --   ---xx   gd77-12-31d1t01.shn
     9:34.63      101401820    ---   --   ---xx   gd77-12-31d1t02.shn
     2:21.46       24980636    ---   --   ---xx   gd77-12-31d1t03.shn
     3:46.62       40012268    ---   --   ---xx   gd77-12-31d1t04.shn
     8:27.68       89594780    ---   --   ---xx   gd77-12-31d1t05.shn
     6:41.20       70783484    ---   --   ---xx   gd77-12-31d1t06.shn
     8:51.01       93670796    ---   --   ---xx   gd77-12-31d1t07.shn
     4:29.58       47588060    ---   --   ---xx   gd77-12-31d1t08.shn
     5:44.34       60761612    ---   --   ---xx   gd77-12-31d1t09.shn
    12:00.63      127156220    ---   --   ---xx   gd77-12-31d2t01.shn
     8:59.14       95112572    ---   --   ---xx   gd77-12-31d2t02.shn
     7:36.49       80553692    ---   --   ---xx   gd77-12-31d2t03.shn
    20:03.56      212340956    ---   --   ---xx   gd77-12-31d2t04.shn
    10:01.35      106098764    ---   --   ---xx   gd77-12-31d2t05.shn
     6:04.28       64275500    ---   --   ---xx   gd77-12-31d2t06.shn
    15:05.58      159778460    ---   --   ---xx   gd77-12-31d3t01.shn
     9:35.47      101540588    ---   --   ---xx   gd77-12-31d3t02.shn
     5:05.71       53969036    ---   --   ---xx   gd77-12-31d3t03.shn
     7:52.49       83376092    ---   --   ---xx   gd77-12-31d3t04.shn
   160:59.66     1704003668 B                     (totals for 19 files, 0.5355 overall compression ratio)
Show Checksums
shn-md5
1bb96830adc20babcd123976cc115643 *gd77-12-31d1t01.shn
3af748104eba643eb796665c41cec555 *gd77-12-31d1t02.shn
b83749b69ecf72538f02e130951492ba *gd77-12-31d1t03.shn
1e1f6c556f31fc7126f18840d523423e *gd77-12-31d1t04.shn
0148fbe0b60fd45875443f3844b4f2c4 *gd77-12-31d1t05.shn
c7b529a10d874b6b1b240b8f5639dfff *gd77-12-31d1t06.shn
f747282e4c3d3b71fcb0fe6b02a61822 *gd77-12-31d1t07.shn
e70e477e47f3a8e53b907b5694898e32 *gd77-12-31d1t08.shn
82dd16f3dfd28acb9270aa990200d9b8 *gd77-12-31d1t09.shn
aa4a3eea94415c2b15ea3a88b8ee6bbc *gd77-12-31d2t01.shn
1f524b3741cffd60ebd6b86cc829b8a0 *gd77-12-31d2t02.shn
27a48386f93672bbe87b760381f17c14 *gd77-12-31d2t03.shn
23e70037c352765f2b3572606e8aba2c *gd77-12-31d2t04.shn
bb6ac42e241b384e00804c34851e6575 *gd77-12-31d2t05.shn
8dea3272537206743f324c2b5f8aa9d7 *gd77-12-31d2t06.shn
ac02b1f2fa3c08a0680f8cbd88584559 *gd77-12-31d3t01.shn
75e7c4ed4921a5d775de82da3382a4d2 *gd77-12-31d3t02.shn
6415a81dc1fc5f8d6f94a0ea998b4fa6 *gd77-12-31d3t03.shn
e9179c01cb8012da4c0b4b1467e8f3b9 *gd77-12-31d3t04.shn
st5
7ac72814f3257fce2941110277db0215 [shntool] gd77-12-31d1t01.shn
0b411f1ad39b2db5c23299637009a065 [shntool] gd77-12-31d1t02.shn
91e4b89c09dc3517553e9f2a3fdb5d9d [shntool] gd77-12-31d1t03.shn
4bcd3f653967f1ae5e48530f0e9c7900 [shntool] gd77-12-31d1t04.shn
baa3fc65c003efd492f2d81dc587aa9e [shntool] gd77-12-31d1t05.shn
799be375e39f2c2794fad2a2f3f309b9 [shntool] gd77-12-31d1t06.shn
c47f0fba0ef3b7a83390696563609ebd [shntool] gd77-12-31d1t07.shn
083fdfd94e4aeefa77bac2dcfcce6437 [shntool] gd77-12-31d1t08.shn
4b3003fea994bd99d7d70ead92b6b502 [shntool] gd77-12-31d1t09.shn
c1d877411d0a547f7dfa1f8ce708001e [shntool] gd77-12-31d2t01.shn
a613dbcca04bc4af8794c0dc6633dddb [shntool] gd77-12-31d2t02.shn
0574fe24beb8ca42607a1375b64a02db [shntool] gd77-12-31d2t03.shn
907c075fd19b6fc2ab0cd98a606c8733 [shntool] gd77-12-31d2t04.shn
3b6e2c038f7e9f0f81d16ab2a087f0f2 [shntool] gd77-12-31d2t05.shn
997de234992ddf741ee88eafe1dcd468 [shntool] gd77-12-31d2t06.shn
478165d4021e714908d7bc3fb475be5d [shntool] gd77-12-31d3t01.shn
657ffdd4eed58fd6f32ce4e330f67f41 [shntool] gd77-12-31d3t02.shn
e0133c9b166d7cf303805cbb56172370 [shntool] gd77-12-31d3t03.shn
af5f891d88bf1860b9a253e25f2a8ed4 [shntool] gd77-12-31d3t04.shn

Comments
Add Comment
Other Sources (comments)
SBD> MR> DAT> standalone... (2) Source: SBD > Master Reel >... (0) flac16; Source Info:... (0) flac24; Source Info:... (0) flac16;... (0) flac16; Matrix 2... (0) DTS-Audio-CD 5.1... (0) flac16/48kHz; 5.1... (0) flac16; Source: SBD... (0)
Date User Comment