Browse Collections Artists Sources   Search Dates

Add Show    List Management    Help


String Cheese Incident 04/13/01
The Backyard, Austin, TX
Comments Add Comment    Source Collectors    Add to Collection    Add to Want List    History
Source # 3731 Other Sources
Entered by Brad Leblanc
Checksums d1 , d2 , d3
Disc Counts 2 / 3
Media Size
Date Circulated
Date Added
4/30/01
05/01/2001
Source Summary Neumann KM254(FOB) > Lunatec V2 > DAP1 > Sony PCM-M1 DAT > CD (see SEED NOTES) Conversion: Kenwood TrueX > EAC > .shn V3 (seekable) 
Source Information - Download Text | Download Zip
The String Cheese Incident
04/13/2001
The Backyard, Austin, TX

Source: Neumann KM254(FOB)>Lunatec V2>DAP1>Sony PCM-M1 DAT>CD  (see SEED NOTES)
Conversion:  Kenwood TrueX>EAC>shn V3 (seekable)
Taper: Larry Fox

Seed: Brian Cole [email protected]   4/30/01


DISC ONE:
Set 1:
1.  Born on the Wrong Planet
2.  Sing a New Song
3.  SKAT
4.  Up the Canyon
5.  Freedom Jazz Dance
6.  Little Hands >
7.  Jam
8.  Smile


DISC TWO:
Set 2:
1.  Lonesome Fiddle Blues
2.  Cedar > Jam >
3.  Sittin' On Top of the World,
4.  MLT
5.  Missin' Me >
6.  Jam >
7.  Sand Dollar


DISC THREE:
1.  Shantytown
2.  Pre Encore Banter
Encore:
3.  Crosstown Traffic
4.  Long Gone



SHOW NOTES:
none

SEED NOTES (& my subjective opinions):
There was a 95db sound limit for all shows at The Backyard during this run.  This
recording is from FOB 40' back.  Due to the location, this recording came out
very crispy and it has a nice warm feel.  Balance is biased a little right but
other than that it is one of the nicer DAUD recordings I have heard from the 2001
tour.  Hope you enjoy it as much as I have!

Big props to Larry Fox for the nice recording and fine color covers.  The color covers can
be found at:  http://www.rapidbsi.com/lf/Content/CDCovers/SCI010413.pdf

Also look for another FOB gem coming for 4/12/01. Disc EAC logs included.  

Enjoy!

-Brian
========================
EAC extraction logfile from 30. April 2001, 11:47 for CD
SCI 4/13/01 Disc 1

Used drive  : KENWOOD CD-ROM UCR-421   Adapter: 1  ID: 0  LUN: 0
Read mode   : Secure with NO C2, accurate stream, disable cache
Read offset : 0
Overread into Lead-In and Lead-Out : No

Used output format : Internal WAV Routines
                     44.100 Hz; 16 Bit; Stereo

Other options      :
    Fill up missing offset samples with silence : Yes
    Delete leading and trailing silent blocks : No
    Installed external ASPI interface


Track  1
   Filename E:\Temp\sci01-04-13d1t01.wav

   Peak level 63.6 %
   Track quality 99.9 %
   Test CRC CD0C362C
   Copy CRC CD0C362C
   Copy OK

Track  2
   Filename E:\Temp\sci01-04-13d1t02.wav

   Peak level 65.2 %
   Track quality 99.9 %
   Test CRC 4D12BD4C
   Copy CRC 4D12BD4C
   Copy OK

Track  3
   Filename E:\Temp\sci01-04-13d1t03.wav

   Peak level 40.1 %
   Track quality 99.8 %
   Test CRC 54BC4A6F
   Copy CRC 54BC4A6F
   Copy OK

Track  4
   Filename E:\Temp\sci01-04-13d1t04.wav

   Peak level 48.1 %
   Track quality 99.9 %
   Test CRC 683833C5
   Copy CRC 683833C5
   Copy OK

Track  5
   Filename E:\Temp\sci01-04-13d1t05.wav

   Peak level 64.0 %
   Track quality 99.9 %
   Test CRC 8CECCEBE
   Copy CRC 8CECCEBE
   Copy OK

Track  6
   Filename E:\Temp\sci01-04-13d1t06.wav

   Peak level 94.6 %
   Track quality 99.9 %
   Test CRC 31AB700A
   Copy CRC 31AB700A
   Copy OK

Track  7
   Filename E:\Temp\sci01-04-13d1t07.wav

   Peak level 49.1 %
   Track quality 99.9 %
   Test CRC ACFE1C91
   Copy CRC ACFE1C91
   Copy OK

Track  8
   Filename E:\Temp\sci01-04-13d1t08.wav

   Peak level 74.0 %
   Track quality 100.0 %
   Test CRC 099E1FD9
   Copy CRC 099E1FD9
   Copy OK

No errors occured


End of status report
====================
EAC extraction logfile from 30. April 2001, 12:41 for CD
SCI 4/13/01 Disc 2

Used drive  : KENWOOD CD-ROM UCR-421   Adapter: 1  ID: 0  LUN: 0
Read mode   : Secure with NO C2, accurate stream, disable cache
Read offset : 0
Overread into Lead-In and Lead-Out : No

Used output format : Internal WAV Routines
                     44.100 Hz; 16 Bit; Stereo

Other options      :
    Fill up missing offset samples with silence : Yes
    Delete leading and trailing silent blocks : No
    Installed external ASPI interface


Track  1
   Filename E:\Temp\sci01-04-13d2t01.wav

   Peak level 75.6 %
   Track quality 99.9 %
   Test CRC 9A86DD4C
   Copy CRC 9A86DD4C
   Copy OK

Track  2
   Filename E:\Temp\sci01-04-13d2t02.wav

   Peak level 71.4 %
   Track quality 99.9 %
   Test CRC 6C5A417B
   Copy CRC 6C5A417B
   Copy OK

Track  3
   Filename E:\Temp\sci01-04-13d2t03.wav

   Peak level 61.4 %
   Track quality 99.9 %
   Test CRC DCFBCC89
   Copy CRC DCFBCC89
   Copy OK

Track  4
   Filename E:\Temp\sci01-04-13d2t04.wav

   Peak level 75.8 %
   Track quality 99.9 %
   Test CRC ADA4199D
   Copy CRC ADA4199D
   Copy OK

Track  5
   Filename E:\Temp\sci01-04-13d2t05.wav

   Peak level 85.5 %
   Track quality 99.9 %
   Test CRC 147C5E6C
   Copy CRC 147C5E6C
   Copy OK

Track  6
   Filename E:\Temp\sci01-04-13d2t06.wav

   Peak level 43.7 %
   Track quality 100.0 %
   Test CRC BE932039
   Copy CRC BE932039
   Copy OK

Track  7
   Filename E:\Temp\sci01-04-13d2t07.wav

   Peak level 100.0 %
   Track quality 99.9 %
   Test CRC 0F395B8B
   Copy CRC 0F395B8B
   Copy OK

No errors occured


End of status report
====================
EAC extraction logfile from 30. April 2001, 12:23 for CD
SCI 4/13/01 Disc 3

Used drive  : KENWOOD CD-ROM UCR-421   Adapter: 1  ID: 0  LUN: 0
Read mode   : Secure with NO C2, accurate stream, disable cache
Read offset : 0
Overread into Lead-In and Lead-Out : No

Used output format : Internal WAV Routines
                     44.100 Hz; 16 Bit; Stereo

Other options      :
    Fill up missing offset samples with silence : Yes
    Delete leading and trailing silent blocks : No
    Installed external ASPI interface


Track  1
   Filename E:\Temp\sci01-04-13d3t01.wav

   Peak level 100.0 %
   Track quality 99.9 %
   Test CRC 0120FD26
   Copy CRC 0120FD26
   Copy OK

Track  2
   Filename E:\Temp\sci01-04-13d3t02.wav

   Peak level 100.0 %
   Track quality 99.9 %
   Test CRC CC0D9795
   Copy CRC CC0D9795
   Copy OK

Track  3
   Filename E:\Temp\sci01-04-13d3t03.wav

   Peak level 74.3 %
   Track quality 99.7 %
   Test CRC A87C056D
   Copy CRC A87C056D
   Copy OK

Track  4
   Filename E:\Temp\sci01-04-13d3t04.wav

   Peak level 54.5 %
   Track quality 99.9 %
   Test CRC B2814A3D
   Copy CRC B2814A3D
   Copy OK

Track  5
   Filename E:\Temp\sci01-04-13d3t05.wav

   Peak level 88.8 %
   Track quality 99.9 %
   Test CRC 21FFD4F9
   Copy CRC 21FFD4F9
   Copy OK

Track  6
   Filename E:\Temp\sci01-04-13d3t06.wav

   Peak level 91.3 %
   Track quality 99.9 %
   Test CRC 04D1EC45
   Copy CRC 04D1EC45
   Copy OK

Track  7
   Filename E:\Temp\sci01-04-13d3t07.wav

   Peak level 97.3 %
   Track quality 99.7 %
   Test CRC 65885E37
   Copy CRC 65885E37
   Copy OK

Track  8
   Filename E:\Temp\sci01-04-13d3t08.wav

   Peak level 92.7 %
   Track quality 99.2 %
   Test CRC 4382EDAB
   Copy CRC 4382EDAB
   Copy OK

Track  9
   Filename E:\Temp\sci01-04-13d3t09.wav

   Peak level 80.4 %
   Track quality 98.8 %
   Test CRC 547E951D
   Copy CRC 547E951D
   Copy OK

Track 10
   Filename E:\Temp\sci01-04-13d3t10.wav

   Peak level 100.0 %
   Track quality 99.2 %
   Test CRC 106BDFAA
   Copy CRC 106BDFAA
   Copy OK

Track 11
   Filename E:\Temp\sci01-04-13d3t11.wav

   Peak level 89.0 %
   Track quality 99.5 %
   Test CRC 62EBD47A
   Copy CRC 62EBD47A
   Copy OK

No errors occured


End of status report

Show Checksums
d1
e86e598d9e70b916ab615e621ed1ab2d *sci01-04-13d1t07.shn
8e9f443de8658ae1de90fdb5677ada93 *sci01-04-13d1t03.shn
167795bead75592491cc48e7c163d523 *sci01-04-13d1t04.shn
21576b8a0ef429a986f28187487dec95 *sci01-04-13d1t05.shn
7082a5922ff51dddb5e54da7c61a3ef3 *sci01-04-13d1t06.shn
10ae474d46d391875c4647e0d1749e96 *sci01-04-13d1t02.shn
81152c3849714e4523fae93e26f6e836 *sci01-04-13d1t08.shn
cacbd4ee3923ba61393ec05c199ab332 *sci01-04-13d1t01.shn
d2
b35ce98421b05be124529c166f5c7a5e *sci01-04-13d2t06.shn
0b5b6179d9e08e646945dc47b2d2366b *sci01-04-13d2t04.shn
680aaf6017c9000e696c93a5a3f94f91 *sci01-04-13d2t03.shn
810c6f42a0b7416073b065a833086888 *sci01-04-13d2t05.shn
0a9a379ff7255579614c648985e551fd *sci01-04-13d2t02.shn
0795c889382e509ff19579a1a03b15b5 *sci01-04-13d2t07.shn
083b115dbf51b93764c4de0c77d0e7b6 *sci01-04-13d2t01.shn
d3
9a48a31902de75e8707efed16e712364 *sci01-04-13d3t01.shn
f85b3237d624c85127fb4554f5d4bbbc *sci01-04-13d3t03.shn
35d8ce146afc12d5007fdada4c084929 *sci01-04-13d3t04.shn
ca99d615f66420d7855b2103cd3b9715 *sci01-04-13d3t02.shn

Comments
Add Comment
Other Sources (comments)
B&K 4011's (FOH) > Lunatec... (1)
Date User Comment
05/14/2001 BrianCole Hold off on downloading this show for a while. I have a version coming that has cleaner track-breaks.