Browse Collections Artists Sources   Search Dates

Add Show    List Management    Help


String Cheese Incident 03/07/99
Garfinkle's, Whistler, BC
Comments Add Comment    Source Collectors    Add to Collection    Add to Want List    History
Source # 74101 Other Sources
Entered by Brad Leblanc
Checksums
Disc Counts 2 / 2
Media Size
Date Circulated
Date Added
7/8/2006
07/07/2006
Source Summary Audix SCX-1 (FOB/DFC) > Patchbay > D8; Transfer:DAT master > Sony r500 > Audiophile 2496 > CD Wave > FLAC16  
Source Information - Download Text | Download Zip
SCI 3/7/1999
Garfinkel\'s - Whistler, BC

Source: Audix SCX-1 mics hung from cieling FOB/DFC> Patchbay> D8

Transfer: DAT master> Sony r500> Audiophile 2496> CD Wave Editor> FLAC on 8/3/04 and 11/3/04 by EEE

DISC 1 / Set 1:  
t01 - Banter
t02 - Salt Creek*
t03 - Missin\' Me>
t04 - Rhum \'n\' Zouc
t05 - Cottonmouth
t06 - Little Hands>
t07 - Birdland  

DISC 2 / Set 2:  
t01 - Banter
t02 - Footprints
t03 - Come As You Are
t04 - Sunny Skies Jam>
t05 - Remington Ride
t06 - Up Against the Wall Redneck Mother
t07 - Shine
t08 - Impressions>
t09 - Restless Wind

*Boosted levels 6db from 0-1:50 with Cool Edit Pro.
Slight level swing from 1:50-1:55 that I did not adjust.
Level changes were at the start of the show as things got dialed in.

SHNTOOL Output:

    length     expanded size   cdr  WAVE problems filename
     1:08.15       12030524    ---   --   -----   sci1999-03-07d1t01.wav
     4:13.05       44641004    ---   --   -----   sci1999-03-07d1t02.wav
     8:19.19       88068332    ---   --   -----   sci1999-03-07d1t03.wav
    14:11.62      150262268    ---   --   -----   sci1999-03-07d1t04.wav
     8:53.02       94025948    ---   --   -----   sci1999-03-07d1t05.wav
    18:32.60      196297964    ---   --   -----   sci1999-03-07d1t06.wav
    12:45.47      135056588    ---   --   -----   sci1999-03-07d1t07.wav
     1:32.48       16341740    ---   --   -----   sci1999-03-07d2t01.wav
     7:17.57       77220908    ---   --   -----   sci1999-03-07d2t02.wav
    11:05.06      117320156    ---   --   -----   sci1999-03-07d2t03.wav
     2:25.25       25636844    ---   --   -----   sci1999-03-07d2t04.wav
     5:21.35       56706764    ---   --   -----   sci1999-03-07d2t05.wav
     4:18.52       45633548    ---   --   -----   sci1999-03-07d2t06.wav
    13:42.37      145087868    ---   --   -----   sci1999-03-07d2t07.wav
    13:05.70      138638684    ---   --   -----   sci1999-03-07d2t08.wav
    13:40.22      144699788    ---   --   -----   sci1999-03-07d2t09.wav
   140:33.37     1487668928 B                     (totals for 16 files, 1.0000 o
verall compression ratio)
Show Checksums

Comments
Add Comment
Date User Comment