Browse Collections Artists Sources   Search Dates

Add Show    List Management    Help


Ratdog 04/07/06
Beacon Theater, New York, NY
Comments Add Comment    Source Collectors    Add to Collection    Add to Want List    History
Source # 74223 Other Sources
Entered by ziko
Checksums ffp
Disc Counts 2 / 3
Media Size
Date Circulated
Date Added

07/10/2006
Source Summary Source: Neumann SKM 184\'s (Din90*/20cm) > Lunatec V3(44.1) Optical Mod > JB3 (16/44.1) Location : @ SBD - DFC row N - seat 106 / 11 FEET HIGH Lineage: JB3>USB>CreativePlaycenter>CD Wave Editor>CDR>EAC(no errors)>WinXP Pro>Traders Little Helper>FLAC16. Recorded, Transferred & Tracked by Larry - FLDEADHEAD Sector boundaries verified w/ TLH. Files encoded @ level 6. An EAC log is included with this fileset. EAC>FLAC16 and seeding to bt.etree.org by Alex Ford 
  Archive
Source Information - Download Text | Download Zip
Ratdog
4/7/2006
Beacon Theatre
New York, NY

Source: Neumann SKM 184's (Din90*/20cm) > Lunatec V3(44.1) Optical Mod > JB3 (16/44.1)

Location : @ SBD - DFC row N - seat 106 / 11 FEET HIGH

Lineage: JB3>USB>CreativePlaycenter>CD Wave Editor>CDR>EAC(no errors)>WinXP Pro>Traders Little Helper>FLAC16.

Recorded, Transferred & Tracked by Larry - FLDEADHEAD
Sector boundaries verified w/ TLH. Files encoded @ level 6. An EAC log is included with this fileset.
EAC>FLAC16 and seeding to bt.etree.org by Alex Ford


Set I:

d1t01  Jam >
d1t02  Truckin >
d1t03  Take Me To The River >
d1t04  Loser,
d1t05  Easy to Slip >
d1t06  Supplication Jam* >
d1t07  Dark Star*,
d1t08  Tuesday Blues* >
d2t01  Scarlet Begonias*+ >
d2t02  Iko Iko*+  

Set II:

d2t03  When I Paint My [email protected],
d2t04  [email protected],
d2t05  Masters of [email protected] >
d2t06  Jam >
d2t07  Even So+ >
d2t08  October Queen+ > The Deep End+ >
d2t09  Lady with a Fan* > Terrapin Station* >
d3t01  Stuff*+ >
d3t02  Black Peter*,
d3t03  St. Stephen* >  William Tell Bridge* >
d3t04  The Eleven*# >
d3t05  Touch Of Grey*#
Encore:
d3t06  At A Siding* > Terrapin Flyer*


@-acoustic
*-w/ Tom Pope (drums)
+-w/ Josh Roseman (trombone)
#-w/ Warren Haynes


Shntool Output:

length     expanded size   cdr  WAVE problems filename
     2:25.49       25693292    ---   --   -----   rd2006-04-07d1t01.wav
    11:19.55      119905004    ---   --   -----   rd2006-04-07d1t02.wav
     5:08.04       54340652    ---   --   -----   rd2006-04-07d1t03.wav
     9:48.69      103885532    ---   --   -----   rd2006-04-07d1t04.wav
     7:54.27       83677148    ---   --   -----   rd2006-04-07d1t05.wav
     5:30.65       58364924    ---   --   -----   rd2006-04-07d1t06.wav
     8:35.37       90933068    ---   --   -----   rd2006-04-07d1t07.wav
    11:57.25      126537644    ---   --   -----   rd2006-04-07d1t08.wav
    10:59.70      116412284    ---   --   -----   rd2006-04-07d2t01.wav
     6:18.58       66815660    ---   --   -----   rd2006-04-07d2t02.wav
     6:32.58       69285260    ---   --   -----   rd2006-04-07d2t03.wav
     7:40.16       81181676    ---   --   -----   rd2006-04-07d2t04.wav
     7:09.13       75706220    ---   --   -----   rd2006-04-07d2t05.wav
     2:12.12       23313068    ---   --   -----   rd2006-04-07d2t06.wav
     9:49.55      104029004    ---   --   -----   rd2006-04-07d2t07.wav
    10:24.03      110080700    ---   --   -----   rd2006-04-07d2t08.wav
    13:24.29      141893852    ---   --   -----   rd2006-04-07d2t09.wav
     9:13.64       97699772    ---   --   -----   rd2006-04-07d3t01.wav
    11:15.36      119154716    ---   --   -----   rd2006-04-07d3t02.wav
     9:34.09      101274812    ---   --   -----   rd2006-04-07d3t03.wav
     7:54.34       83693612    ---   --   -----   rd2006-04-07d3t04.wav
     7:52.12       83289068    ---   --   -----   rd2006-04-07d3t05.wav
     8:36.05       91034204    ---   --   -----   rd2006-04-07d3t06.wav
   191:37.55     2028201172 B                     (totals for 23 files, 1.0000 overall compression ratio)

Flac Fingerprints:

rd2006-04-07d1t01.flac:558ee173098a43c0cc6dbd6cb537703c
rd2006-04-07d1t02.flac:1fbffbd198368ee19eb262909fa12197
rd2006-04-07d1t03.flac:a4befbd31d3b53ea94f50743dff6192a
rd2006-04-07d1t04.flac:2886a606d9ec5d268f5ee9057f184123
rd2006-04-07d1t05.flac:72d4381d481a993c2e037be199d750e6
rd2006-04-07d1t06.flac:f7a051e30623c212d6e870bc6d90ec3d
rd2006-04-07d1t07.flac:cab90b33a07df8bb55924a579fa3b560
rd2006-04-07d1t08.flac:2e01ada57a166de46b55c48a170422fd
rd2006-04-07d2t01.flac:5e9edc97c75f862f45d42db9f7d70c3b
rd2006-04-07d2t02.flac:3746d63e27d99b3402a7de466464541f
rd2006-04-07d2t03.flac:64bca9ae4e4cc14fc2218a5feb032c42
rd2006-04-07d2t04.flac:326ba8ba3479489adb4cff246ee9f4fd
rd2006-04-07d2t05.flac:b5493341e43607da6a3a02b0bad1dc15
rd2006-04-07d2t06.flac:c1b91bc680686f78bc420c63e8ca2051
rd2006-04-07d2t07.flac:9a26678fe7fe1d803fec7ebd1c5c8a85
rd2006-04-07d2t08.flac:ef302364d8bd33d8a85d441f113ee1f0
rd2006-04-07d2t09.flac:31ed430b04f54978a9778471b9ab4945
rd2006-04-07d3t01.flac:3aeada4813532bbb6363ac0e029144f5
rd2006-04-07d3t02.flac:84d8475fbb84d0eab88ab9e41f3b78ab
rd2006-04-07d3t03.flac:25c882378c8578ab6364f0a65e55719c
rd2006-04-07d3t04.flac:305550cc4cd1ab8d2d85413c4086b888
rd2006-04-07d3t05.flac:00d9d1f2de243ca281799f445cb6be81
rd2006-04-07d3t06.flac:99c15e5abeaa696a3c69e6de4946db12
Show Checksums
ffp
rd2006-04-07d1t01.flac:558ee173098a43c0cc6dbd6cb537703c
rd2006-04-07d1t02.flac:1fbffbd198368ee19eb262909fa12197
rd2006-04-07d1t03.flac:a4befbd31d3b53ea94f50743dff6192a
rd2006-04-07d1t04.flac:2886a606d9ec5d268f5ee9057f184123
rd2006-04-07d1t05.flac:72d4381d481a993c2e037be199d750e6
rd2006-04-07d1t06.flac:f7a051e30623c212d6e870bc6d90ec3d
rd2006-04-07d1t07.flac:cab90b33a07df8bb55924a579fa3b560
rd2006-04-07d1t08.flac:2e01ada57a166de46b55c48a170422fd
rd2006-04-07d2t01.flac:5e9edc97c75f862f45d42db9f7d70c3b
rd2006-04-07d2t02.flac:3746d63e27d99b3402a7de466464541f
rd2006-04-07d2t03.flac:64bca9ae4e4cc14fc2218a5feb032c42
rd2006-04-07d2t04.flac:326ba8ba3479489adb4cff246ee9f4fd
rd2006-04-07d2t05.flac:b5493341e43607da6a3a02b0bad1dc15
rd2006-04-07d2t06.flac:c1b91bc680686f78bc420c63e8ca2051
rd2006-04-07d2t07.flac:9a26678fe7fe1d803fec7ebd1c5c8a85
rd2006-04-07d2t08.flac:ef302364d8bd33d8a85d441f113ee1f0
rd2006-04-07d2t09.flac:31ed430b04f54978a9778471b9ab4945
rd2006-04-07d3t01.flac:3aeada4813532bbb6363ac0e029144f5
rd2006-04-07d3t02.flac:84d8475fbb84d0eab88ab9e41f3b78ab
rd2006-04-07d3t03.flac:25c882378c8578ab6364f0a65e55719c
rd2006-04-07d3t04.flac:305550cc4cd1ab8d2d85413c4086b888
rd2006-04-07d3t05.flac:00d9d1f2de243ca281799f445cb6be81
rd2006-04-07d3t06.flac:99c15e5abeaa696a3c69e6de4946db12

Comments
Add Comment
Other Sources (comments)
Source : Audience... (0)
Date User Comment