Browse Collections Artists Sources   Search Dates

Add Show    List Management    Help


Ratdog 07/13/06
Radio City Music Hall, New York, NY
Comments Add Comment    Source Collectors    Add to Collection    Add to Want List    History
Source # 75789 Other Sources
Entered by Charlie Connor
Checksums flac.ffp
Disc Counts 2 / 2
Media Size
Date Circulated
Date Added
07/19/2006
07/19/2006
Source Summary flac 16; Source: Neumann SKM 184s (din 90*/20cm) > Lunatec V3 (44.1) Optical Mod > JB3 (16/44.1) Recorded, transferred and tracked by Larry - FLDEADHEAD Sector boundaries verified with TLH, files encoded @ level 6 *EAC through FLAC16 by Alex Ford 07/19/06.  
Source Information - Download Text | Download Zip
Ratdog
07/13/06
Radio City Music Hall
New York, NY

Source: Neumann SKM 184s (din 90*/20cm) > Lunatec V3 (44.1) Optical Mod > JB3 (16/44.1)
Location: B O B -DFC / Row P - Seat 407 @ 10 feet high
Lineage: JB3 > USB > Creative PlayCenter > CD Wave Editor > CDR > EAC* > WinXP Pro > Trader's Little Helper > FLAC16.

Recorded, transferred and tracked by Larry - FLDEADHEAD
Sector boundaries verified with TLH, files encoded @ level 6
*EAC through FLAC16 by Alex Ford 07/19/06.

Disc 01:

01. Jam >
02. Shakedown Street >
03. Help On The Way > Slipknot! >
04. She Says,
05. Weather Repot Suite - Prelude/Part 1 > Let It Grow,
06. A Hard Rain's A-Gonna [email protected],
07. Lazy River [email protected] >

Disc 02:

01. Odessa >
02. Book Of Rules,
03. Jam >
04. Cassidy >
05. Stuff*
06. Dear Prudence >
07. Two Djinn >
08. Slipknot! > Franklin's Tower
Encore:
09. Attics of My Life+

Notes:

- * w/ Michael Travis (drums)
- + a capella
- Stuff - Jeff/Jay/Kenny > Jeff/Jay/Kenny/Robin > Jeff/Jay/Kenny/Robin/Travis > all/Travis


Shntool Output:

    length     expanded size   cdr  WAVE problems filename
     2:41.39       28492172    ---   --   -----   rd2006-07-13.fldeadhead-d1t01.wav
    10:04.05      106557404    ---   --   -----   rd2006-07-13.fldeadhead-d1t02.wav
     9:31.19      100769132    ---   --   -----   rd2006-07-13.fldeadhead-d1t03.wav
     7:41.47       81430988    ---   --   -----   rd2006-07-13.fldeadhead-d1t04.wav
    20:00.46      211788236    ---   --   -----   rd2006-07-13.fldeadhead-d1t05.wav
     8:48.24       93195692    ---   --   -----   rd2006-07-13.fldeadhead-d1t06.wav
     9:11.36       97281116    ---   --   -----   rd2006-07-13.fldeadhead-d1t07.wav
     6:05.56       64517756    ---   --   -----   rd2006-07-13.fldeadhead-d2t01.wav
     3:50.05       40583804    ---   --   -----   rd2006-07-13.fldeadhead-d2t02.wav
     1:16.09       13427612    ---   --   -----   rd2006-07-13.fldeadhead-d2t03.wav
     8:26.35       89340764    ---   --   -----   rd2006-07-13.fldeadhead-d2t04.wav
     7:10.25       75910844    ---   --   -----   rd2006-07-13.fldeadhead-d2t05.wav
     7:58.07       84335708    ---   --   -----   rd2006-07-13.fldeadhead-d2t06.wav
    11:07.74      117832892    ---   --   -----   rd2006-07-13.fldeadhead-d2t07.wav
    13:05.48      138586940    ---   --   -----   rd2006-07-13.fldeadhead-d2t08.wav
     5:17.57       56052908    ---   --   -----   rd2006-07-13.fldeadhead-d2t09.wav
   132:17.07     1400103968 B                     (totals for 16 files, 1.0000 overall compression ratio)

Show Checksums
flac.ffp
rd2006-07-13.fldeadhead-d1t01.flac:ad35c2a07e52c437ea904b70b51252fd
rd2006-07-13.fldeadhead-d1t02.flac:e5fc487772cd2a0c7876687c2f0e1821
rd2006-07-13.fldeadhead-d1t03.flac:b965f9eed6cba18f43224d22d04f5cda
rd2006-07-13.fldeadhead-d1t04.flac:4192ae64baf618882e890e5e9ccfd3a2
rd2006-07-13.fldeadhead-d1t05.flac:ef6a12673cd82a0a49c5c56f41a729aa
rd2006-07-13.fldeadhead-d1t06.flac:72c45991a5c56ab6496e705eb64fc62e
rd2006-07-13.fldeadhead-d1t07.flac:b318cf70c37335107321fb020936a0a2
rd2006-07-13.fldeadhead-d2t01.flac:23573d4bab69aea33561a578c081c414
rd2006-07-13.fldeadhead-d2t02.flac:41e5ab07a618e4e75a5536403ecdf066
rd2006-07-13.fldeadhead-d2t03.flac:b7720969ec3af118d0981fe0a3f8526a
rd2006-07-13.fldeadhead-d2t04.flac:668440ce56bf82620eed80c9fe7d65fa
rd2006-07-13.fldeadhead-d2t05.flac:447b91bb608e4250eed11061c58d131c
rd2006-07-13.fldeadhead-d2t06.flac:ac1c79ba7d47fe46653413472331a100
rd2006-07-13.fldeadhead-d2t07.flac:796541e4866717f476f2c9ffef67f9c4
rd2006-07-13.fldeadhead-d2t08.flac:95ea813e74b843deb8d869b462999966
rd2006-07-13.fldeadhead-d2t09.flac:f1ff2971d5f190aa034a58ac5bce1fae

Comments
Add Comment
Date User Comment