Browse Collections Artists Sources   Search Dates

Add Show    List Management    Help


Ratdog 08/21/06
Ridgefield Playhouse, Ridgefield, CT
Comments Add Comment    Source Collectors    Add to Collection    Add to Want List    History
Source # 76865 Other Sources
Entered by ziko
Checksums ffp , md5
Disc Counts 2 / 3
Media Size
Date Circulated
Date Added
08/25/2006
08/25/2006
Source Summary flac16; Source: (FOB) Neumann SKM 184's [Din 90* (20cm) 16/44.1] > Lunatec V3(Opti-Mod) > JB3; Transfer: JB3>Creative Labs Playcenter> CD WAVE>CDR>EAC(no errors)>Win XP Pro>CD Wave Editor>Trader's Little Helper>FLAC16.; Taped by Larry -FLDEADHEAD; EAC, conversion and upload to bt.etree by Alex Ford.  
  Archive
Source Information - Download Text | Download Zip
Ratdog
08/21/2006
Ridgefield Playhouse,
Ridgefield, CT
  
Source: (FOB) Neumann SKM 184's [Din 90* (20cm) 16/44.1] > Lunatec V3(Opti-Mod) > JB3

Location: Row J (10TH ROW) Seat 106  FOB - DEAD CENTER! Stand @ 8.5 Feet

Taped by Larry -FLDEADHEAD

Transfer: JB3>Creative Labs Playcenter> CD WAVE>CDR>EAC(no errors)>Win XP Pro>CD Wave Editor>Trader's Little Helper>FLAC16.
Files encoded @ level 6. Sector boundaries verified with TLH.
EAC, conversion and upload to bt.etree by Alex Ford.


Set I:

d1t01  crowd
d1t02  Jam >
d1t03  Truckin' >
d1t04  Take Me To The River >
d1t05  Youngblood >
d1t06  Ramble On Rose >
d1t07  Tomorrow Never Knows >
d1t08  Senor >
d1t09  Row Jimmy >
d1t10  Maggie's Farm

Set II:

d2t01  crowd/tuning
d2t02  [email protected] >
d2t03  Desolation [email protected],
d2t04  Bury Me Standing >
d2t05  Silvio > Tequila > Silvio >Tequila >Silvio >
d2t06  Iko Iko,
d2t07  Stuff* >
d3t01  Wharf Rat >
d3t02  Throwing Stones >
d3t03  Not Fade Away
Encore:
d3t04  Touch Of Grey


Notes:

- @=acoustic
- *Stuff - Jeff/Jay/Kenny/Robin/MK

-------------------------------------------------------------------------------------------------------------

Shntool Output:

length     expanded size   cdr  WAVE problems filename
0:49.71        8810636    ---   --   -----   rd2006-08-21d1t01.wav
4:45.63       50422220    ---   --   -----   rd2006-08-21d1t02.wav
12:44.13      134800220    ---   --   -----   rd2006-08-21d1t03.wav
4:59.26       52804796    ---   --   -----   rd2006-08-21d1t04.wav
4:06.67       43552028    ---   --   -----   rd2006-08-21d1t05.wav
7:42.26       81557996    ---   --   -----   rd2006-08-21d1t06.wav
6:29.19       68664332    ---   --   -----   rd2006-08-21d1t07.wav
7:33.54       80036252    ---   --   -----   rd2006-08-21d1t08.wav
9:40.20      102359084    ---   --   -----   rd2006-08-21d1t09.wav
9:07.00       96490844    ---   --   -----   rd2006-08-21d1t10.wav
1:43.71       18336236    ---   --   -----   rd2006-08-21d2t01.wav
4:51.56       51464156    ---   --   -----   rd2006-08-21d2t02.wav
13:16.36      140499116    ---   --   -----   rd2006-08-21d2t03.wav
13:56.07      147486908    ---   --   -----   rd2006-08-21d2t04.wav
5:50.27       61803548    ---   --   -----   rd2006-08-21d2t05.wav
8:46.22       92838188    ---   --   -----   rd2006-08-21d2t06.wav
6:35.25       69736844    ---   --   -----   rd2006-08-21d2t07.wav
12:14.21      129527036    ---   --   -----   rd2006-08-21d3t01.wav
10:22.74      109894892    ---   --   -----   rd2006-08-21d3t02.wav
8:36.45       91128284    ---   --   -----   rd2006-08-21d3t03.wav
7:45.50       82143644    ---   --   -----   rd2006-08-21d3t04.wav
161:58.43     1714357260 B                     (totals for 21 files, 1.0000 overall compression ratio)

FFP:

rd2006-08-21d1t01.flac:864640ac85a37edc6a500bee42e50677
rd2006-08-21d1t02.flac:59f6860d6bfb0df0d7b8371bbad598da
rd2006-08-21d1t03.flac:177f816e1e6a0209f04ff75530e799c5
rd2006-08-21d1t04.flac:c2d695e06116c9d8cae1f43ece04ff8d
rd2006-08-21d1t05.flac:c5b10f06abae54ae396af188d43a001a
rd2006-08-21d1t06.flac:e183283d68223cc28dafc82d0d3f4fef
rd2006-08-21d1t07.flac:f4781db7f255d29675214cd784949c60
rd2006-08-21d1t08.flac:83843d54758bb2d238109c086172b445
rd2006-08-21d1t09.flac:c25d092485d1335fb123b4a37f7585ff
rd2006-08-21d1t10.flac:edb1e947c1f82ce50252b40d21b3ce71
rd2006-08-21d2t01.flac:ae23ba597bac9e01dc4a7f22cabcf848
rd2006-08-21d2t02.flac:e9d2ee242dc9917b8c47a2ab6c75efe6
rd2006-08-21d2t03.flac:b816228b7d1e4bcb73e52f26aa4e094b
rd2006-08-21d2t04.flac:a3033836c1ce8b331f619c7eb16a96fe
rd2006-08-21d2t05.flac:254cd556b916672b4246abd54d36ba1b
rd2006-08-21d2t06.flac:2399ae95143eea1fbce5a8a5dddd9e73
rd2006-08-21d2t07.flac:47fe54070e1f2097f79794e73fbfe617
rd2006-08-21d3t01.flac:157d0bde7bbdbdc928ce569688b7f249
rd2006-08-21d3t02.flac:06f5c8c1523f5218f77ffcfd2e510e2e
rd2006-08-21d3t03.flac:102b9524f5256df9b26fdd21d4d48003
rd2006-08-21d3t04.flac:80a014d39782695acdaeb06b08a0c589

MD5:

5b5f6f88a76343cc38b08751034ef864 *rd2006-08-21d1t01.flac
804a3d43b6b98bc5686ba588457fbe30 *rd2006-08-21d1t02.flac
f8fe1d3a5d1b545a779be535cb15180f *rd2006-08-21d1t03.flac
ea54bc983a07844c00dac2508ba2b661 *rd2006-08-21d1t04.flac
cabc8ac66b4f71de0a4ee0d61723c20a *rd2006-08-21d1t05.flac
6790cd812a18acfa929b714761e63c80 *rd2006-08-21d1t06.flac
294558ac685ba2d572bf6cb098f6eaed *rd2006-08-21d1t07.flac
f0e66e06014438bf3b542bba1f36ab4c *rd2006-08-21d1t08.flac
6b683c357685db32b69ddb8b9bc5db94 *rd2006-08-21d1t09.flac
a9dc11d772ffa838017fd286102b1f18 *rd2006-08-21d1t10.flac
a995855719e8349e84d3b64787e88712 *rd2006-08-21d2t01.flac
a2e3e737aaef46841220be0230ddfa29 *rd2006-08-21d2t02.flac
79bf82e9b844fbc673ce076e8853af8c *rd2006-08-21d2t03.flac
333d3d960bcf5ff861b1aeb39e22a850 *rd2006-08-21d2t04.flac
cc16874007290beabf3721761ff993ec *rd2006-08-21d2t05.flac
2f635fd3c95b49ab1adfcd7ba32eee9e *rd2006-08-21d2t06.flac
6ca62468736d9649c454880ef4ecd2ed *rd2006-08-21d2t07.flac
c25ce24acf96610227ae135798b187c2 *rd2006-08-21d3t01.flac
5659182618f369645078df16756897b2 *rd2006-08-21d3t02.flac
dd1d521ee6b673948acc2c5efee7ff4b *rd2006-08-21d3t03.flac
a9435f54f02b02bb879f241bd44c2005 *rd2006-08-21d3t04.flac
Show Checksums
ffp
rd2006-08-21d1t01.flac:864640ac85a37edc6a500bee42e50677
rd2006-08-21d1t02.flac:59f6860d6bfb0df0d7b8371bbad598da
rd2006-08-21d1t03.flac:177f816e1e6a0209f04ff75530e799c5
rd2006-08-21d1t04.flac:c2d695e06116c9d8cae1f43ece04ff8d
rd2006-08-21d1t05.flac:c5b10f06abae54ae396af188d43a001a
rd2006-08-21d1t06.flac:e183283d68223cc28dafc82d0d3f4fef
rd2006-08-21d1t07.flac:f4781db7f255d29675214cd784949c60
rd2006-08-21d1t08.flac:83843d54758bb2d238109c086172b445
rd2006-08-21d1t09.flac:c25d092485d1335fb123b4a37f7585ff
rd2006-08-21d1t10.flac:edb1e947c1f82ce50252b40d21b3ce71
rd2006-08-21d2t01.flac:ae23ba597bac9e01dc4a7f22cabcf848
rd2006-08-21d2t02.flac:e9d2ee242dc9917b8c47a2ab6c75efe6
rd2006-08-21d2t03.flac:b816228b7d1e4bcb73e52f26aa4e094b
rd2006-08-21d2t04.flac:a3033836c1ce8b331f619c7eb16a96fe
rd2006-08-21d2t05.flac:254cd556b916672b4246abd54d36ba1b
rd2006-08-21d2t06.flac:2399ae95143eea1fbce5a8a5dddd9e73
rd2006-08-21d2t07.flac:47fe54070e1f2097f79794e73fbfe617
rd2006-08-21d3t01.flac:157d0bde7bbdbdc928ce569688b7f249
rd2006-08-21d3t02.flac:06f5c8c1523f5218f77ffcfd2e510e2e
rd2006-08-21d3t03.flac:102b9524f5256df9b26fdd21d4d48003
rd2006-08-21d3t04.flac:80a014d39782695acdaeb06b08a0c589
md5
5b5f6f88a76343cc38b08751034ef864 *rd2006-08-21d1t01.flac
804a3d43b6b98bc5686ba588457fbe30 *rd2006-08-21d1t02.flac
f8fe1d3a5d1b545a779be535cb15180f *rd2006-08-21d1t03.flac
ea54bc983a07844c00dac2508ba2b661 *rd2006-08-21d1t04.flac
cabc8ac66b4f71de0a4ee0d61723c20a *rd2006-08-21d1t05.flac
6790cd812a18acfa929b714761e63c80 *rd2006-08-21d1t06.flac
294558ac685ba2d572bf6cb098f6eaed *rd2006-08-21d1t07.flac
f0e66e06014438bf3b542bba1f36ab4c *rd2006-08-21d1t08.flac
6b683c357685db32b69ddb8b9bc5db94 *rd2006-08-21d1t09.flac
a9dc11d772ffa838017fd286102b1f18 *rd2006-08-21d1t10.flac
a995855719e8349e84d3b64787e88712 *rd2006-08-21d2t01.flac
a2e3e737aaef46841220be0230ddfa29 *rd2006-08-21d2t02.flac
79bf82e9b844fbc673ce076e8853af8c *rd2006-08-21d2t03.flac
333d3d960bcf5ff861b1aeb39e22a850 *rd2006-08-21d2t04.flac
cc16874007290beabf3721761ff993ec *rd2006-08-21d2t05.flac
2f635fd3c95b49ab1adfcd7ba32eee9e *rd2006-08-21d2t06.flac
6ca62468736d9649c454880ef4ecd2ed *rd2006-08-21d2t07.flac
c25ce24acf96610227ae135798b187c2 *rd2006-08-21d3t01.flac
5659182618f369645078df16756897b2 *rd2006-08-21d3t02.flac
dd1d521ee6b673948acc2c5efee7ff4b *rd2006-08-21d3t03.flac
a9435f54f02b02bb879f241bd44c2005 *rd2006-08-21d3t04.flac

Comments
Add Comment
Other Sources (comments)
flac16;Master/Conver... (0)
Date User Comment