Browse Collections Artists Sources   Search Dates

Add Show    List Management    Help


Robert Randolph [and the Family Band] 02/20/05
Wisconsin Union Theater, Madison, WI
Comments Add Comment    Source Collectors    Add to Collection    Add to Want List    History
Source # 78136 Other Sources
Entered by
Checksums
Disc Counts 2 / 2
Media Size
Date Circulated
Date Added
02/21/05
09/27/2006
Source Summary AKG 480/ck63 (DIN, ~9')>Opti-Mod V3>JB3 (~40' from stage, DFC)
Conversion: JB3>Firewire>WaveLab 5.0>CDWav 1.94.3>FLAC Frontend 1.7.1 (Level 8)
Taper: Crumbo 
Source Information - Download Text | Download Zip
Robert Randolph & The Family Band
Wisconsin Union Theater-University of Wisconsin, Madison
Madison, WI
February 20, 2005

Taper:  Crumbo
Location:  ~40' from stage, DFC
Source:  AKG 480-ck63 (DIN, ~9')>Opti-Mod V3>JB3
Conversion:  JB3>Firewire>WaveLab 5.0>CDWav 1.94.3>FLAC Frontend 1.7.1 (Level 8)


** DO NOT DISTRIBUTE IN LOSSY FORMATS **
** DO NOT REMASTER ALTER WITHOUT PERMISSION **


Disc 1:  69:35.56

01.  [email protected]>                29:54.35
02.  The March>                09:14.63
03.  Press On>                08:37.39
04.  Shake Your Hips#                        11:03.40
05.  *%                10:45.29

Disc 2:  72:04.11

01.  Good Times, Bad Times*>                        05:54.45
02.  Purple Haze*>                06:52.63
03.  Need More Love*                        06:19.46
04.  Encore Break 1                02:47.65
05.          09:32.36
06.  Squeeze>Soul Refreshing>Squeeze                        16:37.06
07.  Encore Break 2                02:43.71
08.  Jesus Is Just Alright*                05:51.40
09.  Roll Up>(War Pigs)>Roll Up*                15:24.14


Notes:

@Instrument switches by band members
#Lots of dancing girls on stage
*Special Guest:  Daniel Sproul (guitarist for the opening band Rose Hill Drive)
%3 members from the audience on guitar at various times
Thanks to Brian for the ride.

Sector Boundaries verified with shntool 2.0.3:

length     expanded size   cdr  WAVE problems filename
    29:54.35      316543964    ---   --   ---xx   rrfb2005-02-20.akg483.v3.d1t01.flac
     9:14.63       97873820    ---   --   ---xx   rrfb2005-02-20.akg483.v3.d1t02.flac
     8:37.39       91290572    ---   --   ---xx   rrfb2005-02-20.akg483.v3.d1t03.flac
    11:03.40      117047324    ---   --   ---xx   rrfb2005-02-20.akg483.v3.d1t04.flac
    10:45.29      113846252    ---   --   ---xx   rrfb2005-02-20.akg483.v3.d1t05.flac
     5:54.45       62551484    ---   --   ---xx   rrfb2005-02-20.akg483.v3.d2t01.flac
     6:52.63       72825020    ---   --   ---xx   rrfb2005-02-20.akg483.v3.d2t02.flac
     6:19.46       66963836    ---   --   ---xx   rrfb2005-02-20.akg483.v3.d2t03.flac
     2:47.65       29611724    ---   --   ---xx   rrfb2005-02-20.akg483.v3.d2t04.flac
     9:32.36      100985516    ---   --   ---xx   rrfb2005-02-20.akg483.v3.d2t05.flac
    16:37.06      175884956    ---   --   ---xx   rrfb2005-02-20.akg483.v3.d2t06.flac
     2:43.71       28920236    ---   --   ---xx   rrfb2005-02-20.akg483.v3.d2t07.flac
     5:51.40       62010524    ---   --   ---xx   rrfb2005-02-20.akg483.v3.d2t08.flac
    15:24.14      163026572    ---   --   ---xx   rrfb2005-02-20.akg483.v3.d2t09.flac
   141:39.67        1429.92 MB                    (totals for 14 files, 0.6049 overall compression ratio)

Compilied by Crumbo 2-21-05

Show Checksums

Comments
Add Comment
Date User Comment