Browse Collections Artists Sources   Search Dates

Add Show    List Management    Help


Grateful Dead 08/05/89
Cal Expo, Sacramento, CA
Comments Add Comment    Source Collectors    Add to Collection    Add to Want List    History
Source # 78865 Other Sources
Entered by Matt Vernon
Checksums ffp , flac-md5
Disc Counts 2 / 2
Media Size
Date Circulated
Date Added
10/07/2006
10/08/2006
Source Summary flac16; AUD Source: Neumann KM-150's > Sony TC-D5M > Maxell XL-IIS tape, with Dolby on. FOB recording, mics on stand, aprx 5-feet high. Transfer: MAC > Nakamichi Dragon (Dolby on) > Tascam CDRW-5000 > CDR > EAC > Soundforge > CD-Wave > TLH v.1.0.0.72 (for SBE-OK, FLAC compression, and checksums) > FLAC 
  Archive
Source Information - Download Text | Download Zip
GRATEFUL DEAD
Cal Expo Amphitheater
Sacramento CA
08-05-1989

Disc One (66:01)

01 One More Saturday Night
02 Cold Rain and Snow
03 We Can Run But We Can't Hide
04 Stagger Lee
05 Stuck Inside of Mobile with the Memphis Blues Again
06 Row Jimmy
07 Let it Grow
-- encore --
08 crowd & tuning
09 U.S. Blues

Disc Two (79:52)

01 crowd & tuning
02 Hey Pocky Way >
03 Playin' in the Band >
04 I Know You Rider >
05 Terrapin >
06 Drums >
07 Space >
08 Standing on the Moon >
09 Throwing Stones >
10 Not Fade Away

AUD Source: Neumann KM-150's > Sony TC-D5M > Maxell XL-IIS tape, with Dolby on. FOB recording, mics on stand, aprx 5-feet high.

Transfer: MAC > Nakamichi Dragon (Dolby on) > Tascam CDRW-5000 > CDR > EAC > Soundforge > CD-Wave > TLH v.1.0.0.72 (for SBE-OK, FLAC compression, and checksums) > FLAC, October 2006.

Notes: Soundforge was used to make fades, and to add patches over
the tape flips. Patches were taken from Shnid-3871. There are two
in Row Jimmy, 08:11 > 08:22, and 09:58 > 10:16. There are two in
Space, 00:53 > 01:13, and 06:48 > 06:57. Taped and transfered thru
CDR by Jon Pasternak, EAC thru FLAC by Andrew F.

***ENJOY***

SHNTOOL

    length     expanded size   cdr  WAVE problems filename
     5:45.59       60996812    ---   --   ---xx   gd1989-08-05d1t01.flac
     7:24.73       78493340    ---   --   ---xx   gd1989-08-05d1t02.flac
     5:24.48       57266540    ---   --   ---xx   gd1989-08-05d1t03.flac
     6:35.54       69805052    ---   --   ---xx   gd1989-08-05d1t04.flac
    11:31.65      122045324    ---   --   ---xx   gd1989-08-05d1t05.flac
    11:36.26      122835596    ---   --   ---xx   gd1989-08-05d1t06.flac
    11:53.18      125815580    ---   --   ---xx   gd1989-08-05d1t07.flac
     0:22.26        3941996    ---   --   ---xx   gd1989-08-05d1t08.flac
     5:26.69       57668732    ---   --   ---xx   gd1989-08-05d1t09.flac
     0:17.21        3048236    ---   --   ---xx   gd1989-08-05d2t01.flac
     6:43.52       71211548    ---   --   ---xx   gd1989-08-05d2t02.flac
     7:35.38       80351420    ---   --   ---xx   gd1989-08-05d2t03.flac
     6:38.18       70249580    ---   --   ---xx   gd1989-08-05d2t04.flac
    12:55.11      136735916    ---   --   ---xx   gd1989-08-05d2t05.flac
     3:49.38       40485020    ---   --   ---xx   gd1989-08-05d2t06.flac
    11:12.62      118686668    ---   --   ---xx   gd1989-08-05d2t07.flac
     9:52.03      104435900    ---   --   ---xx   gd1989-08-05d2t08.flac
    10:19.24      109248092    ---   --   ---xx   gd1989-08-05d2t09.flac
    10:29.03      110962700    ---   --   ---xx   gd1989-08-05d2t10.flac
   145:54.33     1544284052 B                     (totals for 19 files, 0.5751 overall compression ratio)

There were no sector boundary errors.
Show Checksums
ffp
gd1989-08-05d1t01.flac:48dcc8eeebc10fba0c16e3428d61987c
gd1989-08-05d1t02.flac:256c39e1473dc0de11c44a30e74dd982
gd1989-08-05d1t03.flac:f5cc229244c368526e66372ec3a4b7f0
gd1989-08-05d1t04.flac:dcad62666241d265eedfe62c39189375
gd1989-08-05d1t05.flac:d4a445b30790474d105dd5dd1ecc7669
gd1989-08-05d1t06.flac:2fa9edc8c71c02d9fa434448a1dcc991
gd1989-08-05d1t07.flac:57c075ae55a4edfd082f50c88605445c
gd1989-08-05d1t08.flac:658e55d2e00eb5dcf904255721e54c7d
gd1989-08-05d1t09.flac:f51dbb729f070df7592edec18d8085b5
gd1989-08-05d2t01.flac:635a758c75b2868e7831d1721c2e68cc
gd1989-08-05d2t02.flac:fa366c2fc77f1c09b652145168d613e2
gd1989-08-05d2t03.flac:19defee0de2532d6606e5e93f809dfa8
gd1989-08-05d2t04.flac:10e0904fe4e8925dc1fa3503efe21bd3
gd1989-08-05d2t05.flac:0fab6e9ea1c15e35b8a01130e3384bdc
gd1989-08-05d2t06.flac:1cd508c7aad012f2c7d1ce69ddc57014
gd1989-08-05d2t07.flac:c01d8dfda735e51ded2bf3135e6c8517
gd1989-08-05d2t08.flac:2d59b3264d461632647f64f9649a7182
gd1989-08-05d2t09.flac:29296cf91aca31aa47ebfa35535e5492
gd1989-08-05d2t10.flac:64af66f89bc3b9c2b69eb079f3afe3d6
flac-md5
aabaafcff98ed77ad93783cedd09a3d2 *gd1989-08-05d1t01.flac
1a79cd741220e8d6355a1768df410fc0 *gd1989-08-05d1t02.flac
fa5552994e04ae17ab152fb6ca2d0779 *gd1989-08-05d1t03.flac
952a7f4b346cb16ed01143a6b9e5ad6f *gd1989-08-05d1t04.flac
e425a4bab3cfe503d80cb4b080ddb7e0 *gd1989-08-05d1t05.flac
40acfeb960eb4179b7c478791c7f5055 *gd1989-08-05d1t06.flac
8a923d82bca68b58f6a665053d401015 *gd1989-08-05d1t07.flac
9c56988492f1cb1b006c29b0dc465753 *gd1989-08-05d1t08.flac
d0a77810ffad154f395c4fdd630d4402 *gd1989-08-05d1t09.flac
2916ff64f10df522aa74096713194a06 *gd1989-08-05d2t01.flac
e26fe234bf97c148ccf1285a3ebe286e *gd1989-08-05d2t02.flac
ef6d09fcb700d7c1e477f680f53dc735 *gd1989-08-05d2t03.flac
81f1155b777422e80130c2dd38f79fae *gd1989-08-05d2t04.flac
94b437602c57bfacbd9bccc3724ddbee *gd1989-08-05d2t05.flac
90ac634699fb30a030322dacd6e55e53 *gd1989-08-05d2t06.flac
d68125e10851fbece43278f11905043c *gd1989-08-05d2t07.flac
df24361cbdcfbf1c38279302438abf3f *gd1989-08-05d2t08.flac
263ee9191e748b2b018acc97fe1a3797 *gd1989-08-05d2t09.flac
cbffdd74a5cd46c345d2ae9932691969 *gd1989-08-05d2t10.flac

Comments
Add Comment
Other Sources (comments)
FOB Schoeps MK2 (spread) >... (2) set 2; SBD> CM> DAT> CD>... (0) SBD > MC > C > DAT > CD >... (0) flac16; Seamless fix... (1) flac16; Recording... (1) flac16; Source:... (0) flac16; matrix of... (0) flac16; FOB/Schoeps... (0)
Date User Comment