Browse Collections Artists Sources   Search Dates

Add Show    List Management    Help


Ratdog 06/28/06
Dodge Theatre, Phoenix, AZ
Comments Add Comment    Source Collectors    Add to Collection    Add to Want List    History
Source # 79645 Other Sources
Entered by Charlie Connor
Checksums flac.md5 , flac.ffp
Disc Counts 1 / 2
Media Size
Date Circulated
Date Added

10/31/2006
Source Summary flac 16; Source: DK A51TL (Card, XY 90*) > V3 > 744t; Location: TS , 10' DFC; Transfer: Sound Studio 3.04 (Resample, Dither, Fades) 24/48 > 16/44.1 > Flac  
Source Information - Download Text | Download Zip
Bob Weir with Ratdog
6/28/2006
Dodge Theatre
Phoenix, AZ

Source: ADK A51TL (Card, XY 90*) > V3 > 744t
Location: TS , 10' DFC
Transfer: Sound Studio 3.04 (Resample, Dither, Fades) 24/48 > 16/44.1 > Flac
Taper:  mark ([email protected])

One Set
Disc 1
01 Jam >                                          03:41.05
02 Help on the Way >                              06:01.67
03 Slipknot! >                                    05:17.70
04 She Says >                                     08:52.10
05 It's All Over Now,                             06:54.02
06 Tuesday [email protected] >                               11:21.37
07 Looks Like [email protected],                              08:42.08
08 Silvio > Tequila > Silvio > Tequila > Silvio > 08:09.12
09 Althea>                                        09:33.19
10 Iko Iko,                                       07:29.49

Disc 1 Total: 76:02.54

Disc 2
01 Stuff >                                        09:40.32
02 Wharf Rat >                                    13:03.68
03 Two Djinn >                                    10:50.19
04 Slipknot! > Franklin's Tower                   09:13.20
05 E: Deal*                                       07:13.65

Disc 2 Total: 50:01.54

*-w/ Bill Nershi (guitar) and Michael Kang (mandolin, shared vox); Stuff - Jay > Jeff/Jay/Kenny/MK/Robin > all; Kenny sat in with SCI on "Freedom Jazz Dance" and "I Wish"
(with String Cheese Incident [RD closed])

    length     expanded size   cdr  WAVE problems filename
     3:41.05       38996204    ---   --   ---xx   rd060628d1t01.flac
     6:01.67       63838028    ---   --   ---xx   rd060628d1t02.flac
     5:17.70       56083484    ---   --   ---xx   rd060628d1t03.flac
     8:52.10       93868364    ---   --   ---xx   rd060628d1t04.flac
     6:54.02       73034348    ---   --   ---xx   rd060628d1t05.flac
    11:21.37      120215468    ---   --   ---xx   rd060628d1t06.flac
     8:42.08       92099660    ---   --   ---xx   rd060628d1t07.flac
     8:09.12       86287868    ---   --   ---xx   rd060628d1t08.flac
     9:33.19      101121932    ---   --   ---xx   rd060628d1t09.flac
     7:29.49       79318892    ---   --   ---xx   rd060628d1t10.flac
     9:40.32      102387308    ---   --   ---xx   rd060628d2t01.flac
    13:03.68      138281180    ---   --   ---xx   rd060628d2t02.flac
    10:50.19      114704732    ---   --   ---xx   rd060628d2t03.flac
     9:13.20       97596284    ---   --   ---xx   rd060628d2t04.flac
     7:13.65       76534124    ---   --   ---xx   rd060628d2t05.flac
   126:04.33     1334367876 B                     (totals for 15 files, 0.4746 overall compression ratio)
Show Checksums
flac.md5
0366227e908f3beca921f902e95ffcea *rd060628d1t01.flac
bb702a1e26b2345bbe60e72da5c6f6bb *rd060628d1t02.flac
e652c9f7947c5e9c5e4fa0a2fe9683b1 *rd060628d1t03.flac
2d13a39431090ad308f3b0661f8e7af9 *rd060628d1t04.flac
39b6d9da68449e0f7a51f0f8d5b46b7e *rd060628d1t05.flac
58b2531d1cf105dfb168edc40087f0ae *rd060628d1t06.flac
d4a7ca946006b699f1b554a8092b1d83 *rd060628d1t07.flac
093a82a6ee78db37b56a4b67b7c429b4 *rd060628d1t08.flac
4a0a71149419ae8946d46a084c13fb74 *rd060628d1t09.flac
fda1eb9c52b1db143ad820d48be21644 *rd060628d1t10.flac
72bfcda08c362f305e4019cf8800f600 *rd060628d2t01.flac
ed8dd5312a9543e9246885eb642051f2 *rd060628d2t02.flac
92a3705844b29359f43d8b8068ef865a *rd060628d2t03.flac
f9de17693b975d4242da06256aa81b9c *rd060628d2t04.flac
53c97d275eb2ce461549a4df9ebc2567 *rd060628d2t05.flac
flac.ffp
rd060628d1t01.flac:ee46cd1fdddaa9ea31f9430448133be4
rd060628d1t02.flac:1ee3e979a3ea61dda530ffb05320795d
rd060628d1t03.flac:4c07b2c1dd666ef9f1a23721969d1c2d
rd060628d1t04.flac:b83b0cdcb86702c5560b1f71fcc976db
rd060628d1t05.flac:591ab5aec3f509a26890c5b3b5b090df
rd060628d1t06.flac:e5b96c9507761a871e366ac393cdce8b
rd060628d1t07.flac:a327e8646b7849cea7a200ad7849ef2b
rd060628d1t08.flac:8dff0aef32ea74c59e253c8451bede57
rd060628d1t09.flac:b43e0f3c3587821cac42d8ca6cbe473d
rd060628d1t10.flac:4b391813420681fd8c8ab1083af2e873
rd060628d2t01.flac:c3417ee390119ec07f3fc08861fc3039
rd060628d2t02.flac:99a77e959fc4b3d4a76fe032909daf09
rd060628d2t03.flac:818e23fa8cdc8a4ef7e23a8c2a7380fb
rd060628d2t04.flac:0ea110c628bf1f2c6e227d4fa7b14001
rd060628d2t05.flac:4662705248e9dbd583d334b54cc89a22

Comments
Add Comment
Date User Comment