Browse Collections Artists Sources   Search Dates

Add Show    List Management    Help


Ratdog 11/07/06
Strand Theater, York, PA
Comments Add Comment    Source Collectors    Add to Collection    Add to Want List    History
Source # 79878 Other Sources
Entered by ziko
Checksums ffp , md5
Disc Counts 2 / 3
Media Size
Date Circulated
Date Added
11/12/2006
11/14/2006
Source Summary flac 16; Source: DPA 4022 > V3 (analog out) > SD 744t @ 24/96;Location: Front Row Balcony Seat 110/LOC stand at rail/DIN/4ft Transfer: 744t > HDD > Audacity 1.3.2b (gain, resample, dither) > Sound Studio 3.0.4 (fades and splits) > FLAC (level 6);Taped, Transferred & Seeded by Mark Z. 
  Archive
Source Information - Download Text | Download Zip
Bob Weir and Ratdog
2006-11-07
Strand Theater
York, PA


Source: DPA 4022 > V3 (analog out) > SD 744t @ 24/96
Location: Front Row Balcony Seat 110/LOC stand at rail/DIN/4ft
Transfer: 744t > HDD > Audacity 1.3.2b (gain, resample, dither) >
Sound Studio 3.0.4 (fades and splits) > FLAC (6)
Taped, Transferred & Seeded by Mark Z.

Disc 1
Set 1

01 Jam >                                 02:58.03
02 Feel Like a Stranger >                08:47.62
03 She Belongs to Me >                   07:49.55
04 Crazy Fingers >                       11:26.51
05 Ramble On Rose >                      08:21.43
06 Fly Away >                            05:44.69
07 Bury Me Standing >                    10:18.06
08 Good Morning Little Schoolgirl >      07:24.37

Disc 1 Total: 62:51.26

Disc 2

01 Weather Report Suite Prelude/Part 1 > 06:56.41
02 Let It Grow                           13:10.05

Set 2

03 Big [email protected],                            05:56.23
04 Tuesday [email protected],                       11:12.41
05 When I Paint My [email protected],         08:52.58
06 Estimated Prophet >                   15:11.49
07 The Other One Jam >                   03:45.41
08 The Wheel >                           08:34.53

Disc 2 Total: 73:40.11

Disc 3
Set 2 (cont)

01 Stuff >                               08:05.22
02 Wharf Rat >                           13:37.18
03 Throwing Stones                       13:11.38
04 Crowd                                 01:20.11
05 E: Touch of Grey                      07:22.20

Disc 3 Total: 43:36.34




    length     expanded size   cdr  WAVE problems filename
     2:58.03       31406300    ---   --   ---xx   rd061107d1t01.flac
     8:47.62       93108668    ---   --   ---xx   rd061107d1t02.flac
     7:49.55       82861004    ---   --   ---xx   rd061107d1t03.flac
    11:26.51      121130396    ---   --   ---xx   rd061107d1t04.flac
     8:21.43       88477580    ---   --   ---xx   rd061107d1t05.flac
     5:44.69       60843932    ---   --   ---xx   rd061107d1t06.flac
    10:18.06      109029356    ---   --   ---xx   rd061107d1t07.flac
     7:24.37       78408668    ---   --   ---xx   rd061107d1t08.flac
     6:56.41       73478876    ---   --   ---xx   rd061107d2t01.flac
    13:10.05      139367804    ---   --   ---xx   rd061107d2t02.flac
     5:56.23       62852540    ---   --   ---xx   rd061107d2t03.flac
    11:12.41      118637276    ---   --   ---xx   rd061107d2t04.flac
     8:52.58       93981260    ---   --   ---xx   rd061107d2t05.flac
    15:11.49      160815692    ---   --   ---xx   rd061107d2t06.flac
     3:45.41       39786476    ---   --   ---xx   rd061107d2t07.flac
     8:34.53       90794300    ---   --   ---xx   rd061107d2t08.flac
     8:05.22       85605788    ---   --   ---xx   rd061107d3t01.flac
    13:37.18      144161180    ---   --   ---xx   rd061107d3t02.flac
    13:11.38      139621820    ---   --   ---xx   rd061107d3t03.flac
     1:20.11       14137916    ---   --   ---xx   rd061107d3t04.flac
     7:22.20       78015884    ---   --   ---xx   rd061107d3t05.flac
   180:07.71     1906522716 B                     (totals for 21 files, 0.5265 overall compression ratio)
  
  
rd061107d1t01.flac:02d3881e608a3f2918c60fb7c5054631
rd061107d1t02.flac:2dcb2c564ee7bdadde9753a882de47bd
rd061107d1t03.flac:836abce6d4e09c021bb2fef825fca556
rd061107d1t04.flac:66f198986ffa192e90a8718e7fd43dcd
rd061107d1t05.flac:b8f38b9fd9c2569d14a66bde327c0918
rd061107d1t06.flac:00f70d2816474a567844e30e5456d5fd
rd061107d1t07.flac:049447ab591c80c884dda387bfa5bf71
rd061107d1t08.flac:81c9e35ef78c85eaa398c52baff1cbd4
rd061107d2t01.flac:1bb66ef2381733a352f79fb83caf45ee
rd061107d2t02.flac:2188ce9fd3de80ddb4bda165b84dafa2
rd061107d2t03.flac:2619efd16c70dcafc3b4fdf89d5f15b7
rd061107d2t04.flac:8d17cc6f00f502c852e2ae2ec231e337
rd061107d2t05.flac:11b30953acaa6f30b333e154cba0b419
rd061107d2t06.flac:86a4c81ca3255389717dd89b3d3f5f2d
rd061107d2t07.flac:6428819f9fa47551e987df16fcde5ad5
rd061107d2t08.flac:3a9efded01a37cd7a0b1720e58be3885
rd061107d3t01.flac:a5ff0fae569f127142ab4d3f4221a205
rd061107d3t02.flac:f368adcfc7d5e83259778c07894e142d
rd061107d3t03.flac:843ff6947541dbed434899d8f095d1b7
rd061107d3t04.flac:d895b19ecd624542db4e1577d0a13b31
rd061107d3t05.flac:502810fbf1d4dd47dc3d2ee0b1521abf
Show Checksums
ffp
rd061107d1t01.flac:02d3881e608a3f2918c60fb7c5054631
rd061107d1t02.flac:2dcb2c564ee7bdadde9753a882de47bd
rd061107d1t03.flac:836abce6d4e09c021bb2fef825fca556
rd061107d1t04.flac:66f198986ffa192e90a8718e7fd43dcd
rd061107d1t05.flac:b8f38b9fd9c2569d14a66bde327c0918
rd061107d1t06.flac:00f70d2816474a567844e30e5456d5fd
rd061107d1t07.flac:049447ab591c80c884dda387bfa5bf71
rd061107d1t08.flac:81c9e35ef78c85eaa398c52baff1cbd4
rd061107d2t01.flac:1bb66ef2381733a352f79fb83caf45ee
rd061107d2t02.flac:2188ce9fd3de80ddb4bda165b84dafa2
rd061107d2t03.flac:2619efd16c70dcafc3b4fdf89d5f15b7
rd061107d2t04.flac:8d17cc6f00f502c852e2ae2ec231e337
rd061107d2t05.flac:11b30953acaa6f30b333e154cba0b419
rd061107d2t06.flac:86a4c81ca3255389717dd89b3d3f5f2d
rd061107d2t07.flac:6428819f9fa47551e987df16fcde5ad5
rd061107d2t08.flac:3a9efded01a37cd7a0b1720e58be3885
rd061107d3t01.flac:a5ff0fae569f127142ab4d3f4221a205
rd061107d3t02.flac:f368adcfc7d5e83259778c07894e142d
rd061107d3t03.flac:843ff6947541dbed434899d8f095d1b7
rd061107d3t04.flac:d895b19ecd624542db4e1577d0a13b31
rd061107d3t05.flac:502810fbf1d4dd47dc3d2ee0b1521abf
md5
88dcb7810c77db1d81bc2f976c10a602 *rd061107d1t01.flac
e5b858b121631e25df798749659fd309 *rd061107d1t02.flac
4f95afe6397d1bf432e421bc7147784b *rd061107d1t03.flac
fee74796ebff89a69cbe7247e49f70cf *rd061107d1t04.flac
e51e081aa38f4b7cc944fd1effd8808a *rd061107d1t05.flac
30b170937d6970ba03698c57e359ed2e *rd061107d1t06.flac
900f305deafd17c1efe29b653756fdf3 *rd061107d1t07.flac
da31a0c894891f775107d5138416d73e *rd061107d1t08.flac
8c268d440c54ed210f455a11d599cd91 *rd061107d2t01.flac
e81d6352ff5824d4ab8d088523f2c0e5 *rd061107d2t02.flac
5d4d5ee4c1c20eb77d7dc9c992b01ab1 *rd061107d2t03.flac
b8ffe4f61a9e0a9ee45ee8331f69f95f *rd061107d2t04.flac
830111ac1be9352e49dd696a6b0ad486 *rd061107d2t05.flac
e12381b05bf4a5221847d7c1031fe93f *rd061107d2t06.flac
222d1dea4ef804e2dc2dbb3e53d3b166 *rd061107d2t07.flac
94e536c474d1167c8d96b4aa452793d9 *rd061107d2t08.flac
8d671ba5b535350b561060347b6c936b *rd061107d3t01.flac
6c5f9b5e370680e1c3c303cdabf1c145 *rd061107d3t02.flac
004322cc346e67ea56ae614c6d1eafd4 *rd061107d3t03.flac
5759c8bc0278641007cd840149f25430 *rd061107d3t04.flac
da8afe6f011cabbad086ec5d39aebe6f *rd061107d3t05.flac

Comments
Add Comment
Date User Comment