Browse Collections Artists Sources   Search Dates

Add Show    List Management    Help


Ratdog 11/16/06
House of Blues, Orlando, FL
Comments Add Comment    Source Collectors    Add to Collection    Add to Want List    History
Source # 80196 Other Sources
Entered by ziko
Checksums md5 , ffp
Disc Counts 2 / 3
Media Size
Date Circulated
Date Added
11/24/2006
11/24/2006
Source Summary flac 16; Source: Neumann SKM 184s > Lunatec V3 [(44.1) opti-mod] > JB3 (16/44.1) Mic Config: NOS 30 cm (110 deg.): Location: BOB, 3 feet LOC, 9 feet tall (Set II DIN 20 cm 90deg. all else same as above): Taper: Larry-FLDeadhead; Transfer: JB3 > CreativePlayCenter > CDWave > CDR > EAC (no errors) > TLH > FLAC16. level 6. Conversion & upload to bt.etree.org Alex Ford. 
  Archive
Source Information - Download Text | Download Zip
Ratdog
11/16/2006
House of Blues
Orlando, FL

Source: Neumann SKM 184s > Lunatec V3 [(44.1) opti-mod] > JB3 (16/44.1)

Mic Config: NOS 30 cm (110 deg.)

Location: BOB, 3 feet LOC, 9 feet tall (Set II DIN 20 cm 90deg. all else same as above)

Taper: Larry-FLDeadhead

Transfer: JB3 > CreativePlayCenter > CDWave > CDR > EAC (no errors) > TLH > FLAC16.
No sector boundary errors, files encoded at level 6. Conversion & upload to bt.etree.org Alex Ford.

Disc 01
Set I:

d1t01  Jam >
d1t02  Bertha >
d1t03  Cassidy >
d1t04  Dark Star (Instrumental) >
d1t05  Senor
d1t06  Wrong Way Feelin' >
d1t07  New Speedway Boogie >
d1t08  Last Time >
d1t09  Ashes and Glass >
d1t10  Dark Star

Disc 02
Set II:

d2t01  crowd
d2t02  The [email protected] >
d2t03  [email protected] >
d2t04  Dark Star Jam >
d2t05  Silvio > Tequila > Silvio > Tequila > Silvio >
d2t06  Scarlet Begonias >
d2t07  Stuff >
d3t01  Come Together >
d3t02  Dark Star >
d3t03  Cassidy (reprise) >
d3t04  Good Lovin'
Encore:
d3t05  Johnny B. Goode



Notes:

- @ = acoustic
- Bobby, MK, Jay, and Jeff had Mickey Mouse ears on for the encore, and most of the crew for the rest of the show



Shntool Output:

length expanded size cdr WAVE problems filename
3:17.51 34870796 --- -- ----- rd2006-11-16d1t01.wav
7:37.58 80751260 --- -- ----- rd2006-11-16d1t02.wav
8:25.53 89206700 --- -- ----- rd2006-11-16d1t03.wav
7:08.00 75499244 --- -- ----- rd2006-11-16d1t04.wav
7:54.71 83780636 --- -- ----- rd2006-11-16d1t05.wav
7:07.42 75421628 --- -- ----- rd2006-11-16d1t06.wav
9:09.28 96909500 --- -- ----- rd2006-11-16d1t07.wav
6:05.08 64404860 --- -- ----- rd2006-11-16d1t08.wav
11:30.03 121723100 --- -- ----- rd2006-11-16d1t09.wav
6:41.24 70792892 --- -- ----- rd2006-11-16d1t10.wav
0:46.32 8189708 --- -- ----- rd2006-11-16d2t01.wav
5:57.74 63148892 --- -- ----- rd2006-11-16d2t02.wav
11:38.54 123254252 --- -- ----- rd2006-11-16d2t03.wav
2:48.21 29684636 --- -- ----- rd2006-11-16d2t04.wav
7:31.02 79561148 --- -- ----- rd2006-11-16d2t05.wav
12:05.38 127979420 --- -- ----- rd2006-11-16d2t06.wav
7:27.24 78907292 --- -- ----- rd2006-11-16d2t07.wav
6:55.13 73236620 --- -- ----- rd2006-11-16d3t01.wav
7:49.15 82766924 --- -- ----- rd2006-11-16d3t02.wav
5:41.37 60239468 --- -- ----- rd2006-11-16d3t03.wav
10:07.33 107152460 --- -- ----- rd2006-11-16d3t04.wav
5:20.62 56593868 --- -- ----- rd2006-11-16d3t05.wav
159:06.68 1684075304 B (totals for 22 files, 1.0000 overall compression ratio)
Show Checksums
md5
5c89449266684d3ccb4d6937d7cfc5ea *rd2006-11-16d1t01.flac
5b3018533b5b74b8146465f165a827be *rd2006-11-16d1t02.flac
2038961497afdf79ae3d79f8e2f2fe64 *rd2006-11-16d1t03.flac
2d45f1c21105169082505ec87f1e36f2 *rd2006-11-16d1t04.flac
db0fab9be6e5ff79451662277e5e4683 *rd2006-11-16d1t05.flac
666f2c506892e146b6a4da6d4827ae34 *rd2006-11-16d1t06.flac
156a117eff0d61dbef2ef507a98a57cc *rd2006-11-16d1t07.flac
98cb6b06976a96918f110fe93347ac57 *rd2006-11-16d1t08.flac
ae20ae868aea9ca91dec75552ab54a71 *rd2006-11-16d1t09.flac
6392b354fd1acbc4c0ba6675042849d7 *rd2006-11-16d1t10.flac
0e5e49d5f88b9b059ec969b56b8eb8b5 *rd2006-11-16d2t01.flac
47ec8e5e771834f05ebd2d3d2e1b0f02 *rd2006-11-16d2t02.flac
dff3f595c0cab3586b8dca5c44dcdda1 *rd2006-11-16d2t03.flac
e801e5b47c1211a51e33799e8600e4d6 *rd2006-11-16d2t04.flac
5695da349b8405f39143a1b92dab730f *rd2006-11-16d2t05.flac
4f019866112afb21f462d03e9346523e *rd2006-11-16d2t06.flac
c66e16be99c7f5b50e30bea52ab68066 *rd2006-11-16d2t07.flac
ff5830e4f60595fd57a869727510e013 *rd2006-11-16d3t01.flac
e432395aa8acdb9d3454163be897aa1b *rd2006-11-16d3t02.flac
644d33852145f57526dee44f574a44dd *rd2006-11-16d3t03.flac
d0d029fed316fbd0a71c7fe12c7af3ec *rd2006-11-16d3t04.flac
a1a5366779f07c8905fd346f7d179a5f *rd2006-11-16d3t05.flac
ffp
rd2006-11-16d1t01.flac:34618a63d37e688c2603defaa2035fc4
rd2006-11-16d1t02.flac:29554576370639ece9ea3650da6708d3
rd2006-11-16d1t03.flac:da49d1347af16ecf8792067482035853
rd2006-11-16d1t04.flac:b9c9b5ff0213293d59578c2ea3a040b3
rd2006-11-16d1t05.flac:85af705f4aa7a7e3adda3943b54d13f0
rd2006-11-16d1t06.flac:e4ef33d501c5f5660a478d9b6bd1a4b4
rd2006-11-16d1t07.flac:daa8388f3f9228eaad8dd8bb4ccd3c78
rd2006-11-16d1t08.flac:839fefc4e286312c8c93678a4fd68da4
rd2006-11-16d1t09.flac:1da1b8b023f4ee3eeceebfb80f2a8935
rd2006-11-16d1t10.flac:a7b19fb275048490fbdc93c67e647f6b
rd2006-11-16d2t01.flac:7da1f6cf0cd62a2174df608ef9facf9c
rd2006-11-16d2t02.flac:d997f6561857c935c1cfdbed825d52d9
rd2006-11-16d2t03.flac:0dc014c0a0b391c3a6579f7c3420742c
rd2006-11-16d2t04.flac:b2fea9f521d5e725b9242f89a4ad6b67
rd2006-11-16d2t05.flac:02e00c5f93cc6d8e11722b07a2bd6df1
rd2006-11-16d2t06.flac:c015eee6451183cc1800cae7e66611c8
rd2006-11-16d2t07.flac:6bb975fb2416339e5e1dec96a42ef025
rd2006-11-16d3t01.flac:54ca7d24c150e997ccad4327f3a6b88f
rd2006-11-16d3t02.flac:65fda7ba2c511a0e6cd8212e63b7253a
rd2006-11-16d3t03.flac:c8d4ac7a5b68277bb17ee0a75fa4b5cb
rd2006-11-16d3t04.flac:7aa9f62f110159f6a271e314e4af1972
rd2006-11-16d3t05.flac:0c76056f7badca4d3641d2197d52e6e9

Comments
Add Comment
Date User Comment